Chapter 116 | Egois Lesti Adryani | Sony Vegas Pro 14 0 Build 244 + patch - Crackingpatching com

Скачать через торрент [VIDEO] Великая стена The Great Wall бесплатно русская версия torrent активатор

Статистика раздачи
Размер:  1.44 GB   |    Зарегистрирован:  1 год 2 месяца   |    .torrent скачан:  43 раза   |   
Раздают:  1  
   
загрузка...
 
Автор Сообщение

Galfimbul

avatar Galfimbul


Великая стена / The Great Wall<hr class="post-hr">«1700 лет ушло на строительство. 8851 км неприступных стен. Какой враг угрожал империи?»<hr class="post-hr">
<hr class="post-hr">Год выпуска: 2016
Страна: США, Китай, Гонконг, Австралия, Канада
Жанр: фэнтези, боевик, триллер, приключения
Продолжительность: 01:43:03
Перевод: Русский Профессиональный (полное дублирование) Blu-ray EUR
Оригинальная дорожка: Есть
Cубтитры: softsub (отключаемые), русские (форсированные на китайскую речь, и полные), английские (форсированные, полные, SDH)<hr class="post-hr">Режиссер: Чжан Имоу / Zhang Yimou<hr class="post-hr">В ролях: Мэтт Дэймон, Тянь Цзин, Педро Паскаль, Лу Хан, Уиллем Дефо, Энди Лау, Эдди Пэн, Нуман Акар, Кенни Лин, Ханьюй Чжан, Вики Юй, Лю Бин, Чжэн Кай, Джонни Чикко, Чэни Чэнь, Кэрри Ван .<hr class="post-hr">Описание: Великую стену воздвигли, чтобы оградить Поднебесную от любых угроз, но с таким врагом не сталкивались даже самые отважные ее защитники. Если вторжение не остановить — мир будет уничтожен.<hr class="post-hr"> Релиз группы <hr class="post-hr">Качество: BDRip / рип с Blu-ray Disc [EUR]
Формат: MP4
Видео кодек: H.264
Аудио кодек: AAC
Видео: 960х402 AR:2.39 1740 kbps 23.976 fps
Аудио №1: [Russian] 2ch 48 kHz 128 kbps - Профессиональный (полное дублирование) Blu-ray EUR
Аудио №2: [English] 2ch 48 kHz 128 kbps - Оригинал<hr class="post-hr">
avs [info]: 960x402p 1:1 @ 2997/125 fps (cfr)
x264 [info]: using SAR=1/1
x264 [info]: using cpu capabilities: MMX2 SSE2Fast SSSE3 SSE4.2 AVX FMA3 AVX2 LZCNT BMI2
x264 [info]: profile High, level 4.1

x264 [info]: frame I:1212 Avg QP:16.61 size: 54729
x264 [info]: frame P:46255 Avg QP:20.91 size: 15679
x264 [info]: frame B:100785 Avg QP:22.39 size: 5487
x264 [info]: consecutive B-frames: 10.5% 5.7% 13.3% 27.4% 16.8% 18.6% 4.0% 1.5% 0.9% 0.6% 0.8%
x264 [info]: mb I I16..4: 6.5% 70.5% 22.9%
x264 [info]: mb P I16..4: 1.1% 10.0% 2.5% P16..4: 32.7% 29.2% 8.8% 0.0% 0.0% skip:15.7%
x264 [info]: mb B I16..4: 0.2% 1.7% 0.5% B16..8: 34.2% 18.2% 2.9% direct: 4.6% skip:37.7% L0:40.6% L1:44.4% BI:15.0%
x264 [info]: 8x8 transform intra:72.6% inter:62.5%
x264 [info]: direct mvs spatial:95.2% temporal:4.8%
x264 [info]: coded y,uvDC,uvAC intra: 79.5% 75.2% 45.0% inter: 22.4% 17.0% 6.5%
x264 [info]: i16 v,h,dc,p: 19% 10% 6% 65%
x264 [info]: i8 v,h,dc,ddl,ddr,vr,hd,vl,hu: 13% 6% 5% 9% 14% 13% 14% 12% 14%
x264 [info]: i4 v,h,dc,ddl,ddr,vr,hd,vl,hu: 31% 5% 9% 7% 11% 10% 10% 8% 9%
x264 [info]: i8c dc,h,v,p: 32% 29% 22% 17%
x264 [info]: Weighted P-Frames: Y:15.1% UV:9.1%
x264 [info]: ref P L0: 55.5% 13.0% 13.9% 5.4% 3.9% 3.5% 2.7% 1.6% 0.4% 0.0%
x264 [info]: ref B L0: 82.7% 8.7% 4.2% 1.9% 1.4% 0.8% 0.4%
x264 [info]: ref B L1: 95.8% 4.2%
x264 [info]: kb/s:1739.64

encoded 148252 frames, 13.56 fps, 1739.64 kb/s
GeneralComplete name : D:\Torrents\The Great Wall.2016.BDRip.x264.960x.rip by Frost O.S.mp4Format : MPEG-4Format profile : Base MediaCodec ID : isom (isom/avc1/iso2)File size : 1.44 GiBDuration : 1 h 43 minOverall bit rate mode : VariableOverall bit rate : 2 007 kb/sMovie name : The Great Wall 2016 BDRip x264 960x rip by Frost O SDirector : Чжан Имоу / Zhang YimouActor : Мэтт Дэймон / Тянь Цзин / Педро Паскаль / Лу Хан / Уиллем Дефо / Энди Лау / Эдди Пэн / Нуман Акар / Кенни Лин / Ханьюй Чжан / Вики Юй / Лю Бин / Чжэн Кай / Джонни Чикко / Чэни Чэнь / Кэрри Ван .Genre : ActionContentType : Short FilmEncoded date : UTC 2017-05-18 19:18:09Tagged date : UTC 2017-05-18 19:22:26Writing application : MkvToMp4 version: 0.224 (x64)Cover : YesComment : rip by Frost O.SLongDescription : Великую стену воздвигли, чтобы оградить Поднебесную от любых угроз, но с таким врагом не сталкивались даже самые отважные ее защитники. Если вторжение не остановить — мир будет уничтожен.

VideoID : 1Format : AVCFormat/Info : Advanced Video CodecFormat profile : [email protected] settings, CABAC : YesFormat settings, ReFrames : 8 framesCodec ID : avc1Codec ID/Info : Advanced Video CodingDuration : 1 h 43 minBit rate : 1 740 kb/sMaximum bit rate : 7 689 kb/sWidth : 960 pixelsHeight : 402 pixelsDisplay aspect ratio : 2.40:1Frame rate mode : ConstantFrame rate : 23.976 (24000/1001) FPSOriginal frame rate : 23.976 (23976/1000) FPSColor space : YUVChroma subsampling : 4:2:0Bit depth : 8 bitsScan type : ProgressiveBits/(Pixel*Frame) : 0.188Stream size : 1.25 GiB (87%)Writing library : x264 core 148 r2744 b97ae06Encoding settings : cabac=1 / ref=8 / deblock=1:-1:-1 / analyse=0x3:0x113 / me=umh / subme=11 / psy=1 / psy_rd=0.90:0.00 / mixed_ref=1 / me_range=32 / chroma_me=1 / trellis=2 / 8x8dct=1 / cqm=0 / deadzone=21,11 / fast_pskip=0 / chroma_qp_offset=-2 / threads=6 / lookahead_threads=1 / sliced_threads=0 / nr=0 / decimate=0 / interlaced=0 / bluray_compat=0 / constrained_intra=0 / bframes=10 / b_pyramid=2 / b_adapt=2 / b_bias=0 / direct=3 / weightb=1 / open_gop=0 / weightp=2 / keyint=250 / keyint_min=23 / scenecut=40 / intra_refresh=0 / rc=2pass / mbtree=0 / bitrate=1740 / ratetol=1.0 / qcomp=0.70 / qpmin=0 / qpmax=69 / qpstep=4 / cplxblur=20.0 / qblur=0.5 / ip_ratio=1.40 / pb_ratio=1.30 / aq=2:0.70Language : EnglishEncoded date : UTC 2017-05-18 19:18:09Tagged date : UTC 2017-05-18 19:19:59Color range : LimitedColor primaries : BT.709Transfer characteristics : BT.709Matrix coefficients : BT.709

Audio #1ID : 2Format : AACFormat/Info : Advanced Audio CodecFormat profile : LCCodec ID : 40Duration : 1 h 43 minBit rate mode : VariableBit rate : 128 kb/sMaximum bit rate : 135 kb/sChannel(s) : 2 channelsChannel positions : Front: L RSampling rate : 48.0 kHzFrame rate : 46.875 FPS (1024 spf)Compression mode : LossyStream size : 94.4 MiB (6%)Title : Dub_ Blu_ray EUR / Dub_ Blu_ray EURLanguage : RussianDefault : YesAlternate group : 1Encoded date : UTC 2017-05-18 19:19:36Tagged date : UTC 2017-05-18 19:19:59

Audio #2ID : 3Format : AACFormat/Info : Advanced Audio CodecFormat profile : LCCodec ID : 40Duration : 1 h 43 minBit rate mode : VariableBit rate : 128 kb/sMaximum bit rate : 135 kb/sChannel(s) : 2 channelsChannel positions : Front: L RSampling rate : 48.0 kHzFrame rate : 46.875 FPS (1024 spf)Compression mode : LossyStream size : 94.4 MiB (6%)Title : Original / OriginalLanguage : EnglishDefault : NoAlternate group : 1Encoded date : UTC 2017-05-18 19:19:45Tagged date : UTC 2017-05-18 19:19:59

Text #1ID : 4Format : Timed TextMuxing mode : sbtlCodec ID : tx3gDuration : 1 h 25 minBit rate mode : VariableBit rate : 2 b/sStream size : 1.02 KiB (0%)Title : forced / forcedLanguage : RussianDefault : YesForced : NoAlternate group : 2Encoded date : UTC 2017-05-18 19:19:59Tagged date : UTC 2017-05-18 19:19:59

Text #2ID : 5Format : Timed TextMuxing mode : sbtlCodec ID : tx3gDuration : 1 h 30 minBit rate mode : VariableBit rate : 56 b/sStream size : 37.5 KiB (0%)Title : full / fullLanguage : RussianDefault : NoForced : NoAlternate group : 2Encoded date : UTC 2017-05-18 19:19:59Tagged date : UTC 2017-05-18 19:19:59

Text #3ID : 6Format : Timed TextMuxing mode : sbtlCodec ID : tx3gDuration : 1 h 25 minBit rate mode : VariableBit rate : 11 b/sStream size : 6.65 KiB (0%)Title : forced / forcedLanguage : EnglishDefault : NoForced : NoAlternate group : 2Encoded date : UTC 2017-05-18 19:19:59Tagged date : UTC 2017-05-18 19:19:59

Text #4ID : 7Format : Timed TextMuxing mode : sbtlCodec ID : tx3gDuration : 1 h 30 minBit rate mode : VariableBit rate : 36 b/sStream size : 24.0 KiB (0%)Title : full / fullLanguage : EnglishDefault : NoForced : NoAlternate group : 2Encoded date : UTC 2017-05-18 19:19:59Tagged date : UTC 2017-05-18 19:19:59

Text #5ID : 8Format : Timed TextMuxing mode : sbtlCodec ID : tx3gDuration : 1 h 30 minBit rate mode : VariableBit rate : 46 b/sStream size : 30.9 KiB (0%)Title : SDH / SDHLanguage : EnglishDefault : NoForced : NoAlternate group : 2Encoded date : UTC 2017-05-18 19:19:59Tagged date : UTC 2017-05-18 19:19:59
</div><!--/post_body-->

Трекер:  [ 18-Май-2017 21:30 ]

  

Скачать .torrent

Размер .torrent файла 15 KB


Размер: 1.44 GB
Хэш (hash) релиза: 0e8e00c71e951351a4405b1ce3904d4b71d00a33

Торренты, похожие на [VIDEO] Великая стена The Great Wall скачать торрент

Форум Название Автор Размер S L Добавлен
Видео (Фильмы/Клипы) ·· [VIDEO] Великая стена / The Great Wall (Чжан Имоу / Zhang Yimou) [2016, фэнтези, боевик, триллер, приключения, HDRip] [MP4, 480x] Dub Blu-ray CEE, Sub (rus) Galfimbul 489095117466 MB 0 0 1495207566

18:26

19-Май-17

Еще никто не оставлял запись к записи скачать торрент [VIDEO] Великая стена The Great Wall . Будь первым!

!Обратная связь