Chris Pratt | Rebecka Martinsson (2017) | The Burglar

Скачать через торрент [VIDEO] Новый Гулливер бесплатно русская версия torrent активатор

Статистика раздачи
Размер:  634 MB   |    Зарегистрирован:  1 год 1 месяц   |    .torrent скачан:  35 раз   |   
Раздают:  1  
   
загрузка...
 
Автор Сообщение

Galfimbul

avatar Galfimbul


Новый Гулливер<hr class="post-hr">
<hr class="post-hr">Год выпуска: 1935
Страна: СССР
Жанр: сказка
Продолжительность: 01:12:55
Перевод: не требуется
Cубтитры: нет<hr class="post-hr">Режиссер: Александр Птушко<hr class="post-hr">В ролях: Владимир Константинов, Иван Юдин, Иван Бобров, Феликс Брест, Юрий Хмельницкий, Михаил Дагмаров, Ака Неусыхин, Борис Евгеньев и другие .<hr class="post-hr">Описание: Школьника Петю в пионерском лагере «Артек» премировали книгой о путешествиях Гулливера. Зачитавшись, мальчик засыпает и видит себя на месте «великана», попавшего в страну лилипутов.<hr class="post-hr"> Релиз группы <hr class="post-hr">Качество: DVDRip / рип с DVD5
Формат: MP4
Видео кодек: H.264
Аудио кодек: AAC
Видео: 480x360 AR:1.33 1080 kbps 25 fps
Аудио: 2ch 48 kHz 128 kbps<hr class="post-hr">
avs [info]: 480x360p 1:1 @ 25/1 fps (cfr)
x264 [info]: using SAR=1/1
x264 [info]: using cpu capabilities: MMX2 SSE2Fast SSSE3 SSE4.2 AVX FMA3 AVX2 LZCNT BMI2
x264 [info]: profile High, level 4.1
x264 [info]: frame I:791 Avg QP:23.10 size: 23994
x264 [info]: frame P:24360 Avg QP:25.59 size: 9471
x264 [info]: frame B:84231 Avg QP:28.01 size: 4047
x264 [info]: consecutive B-frames: 1.6% 2.6% 9.2% 28.3% 22.4% 21.9% 7.1% 4.0% 1.9% 1.0%
x264 [info]: mb I I16..4: 2.3% 81.8% 15.9%
x264 [info]: mb P I16..4: 0.3% 12.7% 1.2% P16..4: 35.7% 36.2% 12.0% 1.3% 0.1% skip: 0.6%
x264 [info]: mb B I16..4: 0.0% 2.9% 0.2% B16..8: 40.7% 21.6% 3.3% direct: 8.4% skip:22.9% L0:46.8% L1:41.4% BI:11.8%
x264 [info]: 8x8 transform intra:89.5% inter:68.5%
x264 [info]: direct mvs spatial:98.5% temporal:1.5%
x264 [info]: coded y,uvDC,uvAC intra: 97.2% 7.3% 0.1% inter: 39.5% 2.0% 0.0%
x264 [info]: i16 v,h,dc,p: 22% 54% 2% 22%
x264 [info]: i8 v,h,dc,ddl,ddr,vr,hd,vl,hu: 8% 7% 5% 11% 16% 14% 15% 12% 12%
x264 [info]: i4 v,h,dc,ddl,ddr,vr,hd,vl,hu: 10% 7% 2% 9% 17% 16% 14% 12% 12%
x264 [info]: i8c dc,h,v,p: 69% 27% 3% 1%
x264 [info]: Weighted P-Frames: Y:79.7% UV:0.1%
x264 [info]: ref P L0: 42.8% 15.5% 12.3% 6.7% 4.5% 4.5% 3.6% 2.6% 2.1% 2.0% 1.8% 1.6% 0.0%
x264 [info]: ref B L0: 72.9% 9.5% 5.1% 3.0% 2.5% 2.2% 1.9% 1.4% 1.0% 0.5%
x264 [info]: ref B L1: 95.5% 4.5%
x264 [info]: kb/s:1079.84

x264 [total]: encoded 109382 frames, 14.67 fps, 1079.84 kb/s
GeneralComplete name : D:\Torrents\Новый Гулливер.1935.DVDRip.x264.640x.rip by Frost O.S.mp4Format : MPEG-4Format profile : Base MediaCodec ID : isom (isom/avc1)File size : 634 MiBDuration : 1 h 12 minOverall bit rate mode : VariableOverall bit rate : 1 216 kb/sMovie name : Новый Гулливер 1935 DVDRip x264 640x rip by Frost O SContentType : Short FilmEncoded date : UTC 2017-05-18 19:41:37Tagged date : UTC 2017-05-18 19:43:10Writing application : MkvToMp4 version: 0.224 (x64)Cover : YesComment : rip by Frost O.S

VideoID : 1Format : AVCFormat/Info : Advanced Video CodecFormat profile : [email protected] settings, CABAC : YesFormat settings, ReFrames : 11 framesCodec ID : avc1Codec ID/Info : Advanced Video CodingDuration : 1 h 12 minBit rate : 1 080 kb/sMaximum bit rate : 2 944 kb/sWidth : 480 pixelsHeight : 360 pixelsDisplay aspect ratio : 4:3Frame rate mode : ConstantFrame rate : 25.000 FPSColor space : YUVChroma subsampling : 4:2:0Bit depth : 8 bitsScan type : ProgressiveBits/(Pixel*Frame) : 0.250Stream size : 563 MiB (89%)Writing library : x264 core 148 r2744 b97ae06Encoding settings : cabac=1 / ref=11 / deblock=1:-1:-1 / analyse=0x3:0x133 / me=umh / subme=11 / psy=1 / psy_rd=1.00:0.00 / mixed_ref=1 / me_range=48 / chroma_me=1 / trellis=2 / 8x8dct=1 / cqm=0 / deadzone=21,11 / fast_pskip=0 / chroma_qp_offset=-2 / threads=4 / lookahead_threads=1 / sliced_threads=0 / nr=0 / decimate=0 / interlaced=0 / bluray_compat=0 / constrained_intra=0 / bframes=9 / b_pyramid=2 / b_adapt=2 / b_bias=0 / direct=3 / weightb=1 / open_gop=0 / weightp=2 / keyint=250 / keyint_min=25 / scenecut=40 / intra_refresh=0 / rc=2pass / mbtree=0 / bitrate=1080 / ratetol=1.0 / qcomp=0.60 / qpmin=0 / qpmax=69 / qpstep=4 / cplxblur=20.0 / qblur=0.5 / ip_ratio=1.40 / pb_ratio=1.30 / aq=1:1.00Language : EnglishEncoded date : UTC 2017-05-18 19:41:37Tagged date : UTC 2017-05-18 19:41:58Color range : LimitedColor primaries : BT.601 PALTransfer characteristics : BT.470 System B, BT.470 System GMatrix coefficients : BT.601

AudioID : 2Format : AACFormat/Info : Advanced Audio CodecFormat profile : LCCodec ID : 40Duration : 1 h 12 minBit rate mode : VariableBit rate : 128 kb/sMaximum bit rate : 132 kb/sChannel(s) : 2 channelsChannel positions : Front: L RSampling rate : 48.0 kHzFrame rate : 46.875 FPS (1024 spf)Compression mode : LossyStream size : 66.8 MiB (11%)Language : RussianDefault : YesAlternate group : 1Encoded date : UTC 2017-05-18 19:41:49Tagged date : UTC 2017-05-18 19:41:58
</div><!--/post_body-->

Трекер:  [ 18-Май-2017 21:30 ]

  

Скачать .torrent

Размер .torrent файла 13 KB


Размер: 634 MB
Хэш (hash) релиза: ad3f8b2450202c2ec3edbb59de74c0d0c0b7730a

Еще никто не оставлял запись к записи скачать торрент [VIDEO] Новый Гулливер . Будь первым!

!Обратная связь