AOMEI Backupper Professional Technician Technician Plus Server 4 1 0 WinPE..
FWSA Henry HD for Edward 8

Скачать через торрент [VIDEO] Морган Morgan бесплатно русская версия torrent активатор

Статистика раздачи
Размер:  1.56 GB   |    Зарегистрирован:  11 месяцев   |    .torrent скачан:  27 раз   |   
Раздают:  1  
   
загрузка...
 
Автор Сообщение

Galfimbul

avatar Galfimbul


Морган / Morgan
«Оно не должно выбраться»
Год выпуска: 2016
Оригинальное название: Morgan
Страна: США
Жанр: ужасы, фантастика, триллер
Возраст: 18+

Режиссер: Люк Скотт

В ролях: Кейт Мара, Аня Тейлор-Джой, Роуз Лесли, Майкл Йар, Тоби Джонс, Крис Салливан, Бойд Холбрук, Винетт Робинсон, Мишель Йео, Брайан Кокс

Описание: Сотрудница по устранению аварий отправляется в отдаленный секретный филиал, где должна расследовать и оценить потери от происшествия. На месте она узнает, что случившееся было вызвано, казалось бы, невинным «человеком», чьё существование само по себе является тайной.

Продолжительность: 01:31:52
Перевод: Дублированный [Лицензия]
Оригинальная дорожка: нет

Автор рипа:

Качество видео: BDRip Исходник: Blu-Ray Remux (1080p) Формат: mp4
Видео кодек: MPEG-4 AVC Аудио кодек: AAC
Видео: 1280x536 (2.40:1) at 23.976 fps, AVC at 2 300 kbps avg, 0.140 bit/pixel
Аудио №1 Rus: 48.0 KHz, AAC, 2 ch, 128.0 Kbps
Субтитры: нет
Навигация по главам: есть
Размер: 1.56 GiB
avs [info]: 1280x536p 1:1 @ 24000/1001 fps (cfr)
x264 [info]: using SAR=1/1
x264 [info]: using cpu capabilities: MMX2 SSE2Fast SSSE3 Cache64
x264 [info]: profile High, level 4.1
x264 [info]: frame I:1174 Avg QP:13.03 size:120852
x264 [info]: frame P:24912 Avg QP:16.30 size: 29649
x264 [info]: frame B:106086 Avg QP:18.80 size: 6638
x264 [info]: consecutive B-frames: 1.7% 1.6% 4.7% 11.4% 13.4% 43.3% 9.1% 3.3% 3.3% 4.7% 3.4%
x264 [info]: mb I I16..4: 6.3% 69.6% 24.1%
x264 [info]: mb P I16..4: 1.0% 6.9% 1.2% P16..4: 42.9% 25.5% 15.1% 0.0% 0.0% skip: 7.4%
x264 [info]: mb B I16..4: 0.1% 0.5% 0.1% B16..8: 41.6% 6.8% 1.5% direct: 3.4% skip:46.0% L0:46.3% L1:46.7% BI: 7.0%
x264 [info]: 8x8 transform intra:73.9% inter:59.1%
x264 [info]: coded y,uvDC,uvAC intra: 82.7% 80.7% 55.6% inter: 15.6% 15.5% 1.9%
x264 [info]: i16 v,h,dc,p: 30% 19% 7% 44%
x264 [info]: i8 v,h,dc,ddl,ddr,vr,hd,vl,hu: 18% 14% 21% 6% 8% 8% 9% 8% 8%
x264 [info]: i4 v,h,dc,ddl,ddr,vr,hd,vl,hu: 22% 17% 14% 6% 10% 8% 9% 7% 7%
x264 [info]: i8c dc,h,v,p: 51% 21% 20% 8%
x264 [info]: Weighted P-Frames: Y:2.8% UV:1.3%
x264 [info]: ref P L0: 49.4% 8.1% 17.5% 7.0% 5.7% 4.2% 3.7% 2.1% 2.1% 0.1% 0.0%
x264 [info]: ref B L0: 69.9% 12.9% 7.2% 3.6% 2.6% 2.2% 1.3% 0.4%
x264 [info]: ref B L1: 92.1% 7.9%
x264 [info]: kb/s:2299.68
encoded 132172 frames, 2.77 fps, 2299.68 kb/s
GeneralComplete name : ...Morgan_2016_KinoGadget.mp4Format : MPEG-4Format profile : Base MediaCodec ID : isom (isom)File size : 1.56 GiBDuration : 1 h 31 minOverall bit rate mode : VariableOverall bit rate : 2 435 kb/sMovie name : Морган | KinoGadgetPerformer : Люк СкоттDirector : Люк СкоттActor : Кейт Мара / Аня Тейлор-Джой / Роуз Лесли / Майкл Йар / Тоби Джонс / Крис Салливан / Бойд Холбрук / Винетт Робинсон / Мишель Йео / Брайан КоксScreenplay by : Сет В. ОуэнProducer : Марк Хаффам / Майкл Шефер / Ридли СкоттGenre : Horror, ThrillerContentType : Short FilmRecorded date : 2016Encoded date : UTC 2017-05-16 18:15:18Tagged date : UTC 2017-05-18 15:59:14Cover : YesContentRating : mpaa|R|400|LongDescription : Сотрудница по устранению аварий отправляется в отдаленный секретный филиал, где должна расследовать и оценить потери от происшествия. На месте она узнает, что случившееся было вызвано, казалось бы, невинным «человеком», чьё существование само по себе является тайной.HDVideo : Yes

VideoID : 1Format : AVCFormat/Info : Advanced Video CodecFormat profile : [email protected] settings, CABAC : YesFormat settings, ReFrames : 9 framesCodec ID : avc1Codec ID/Info : Advanced Video CodingDuration : 1 h 31 minBit rate : 2 300 kb/sMaximum bit rate : 32.4 Mb/sWidth : 1 280 pixelsHeight : 536 pixelsDisplay aspect ratio : 2.40:1Frame rate mode : ConstantFrame rate : 23.976 (24000/1001) FPSColor space : YUVChroma subsampling : 4:2:0Bit depth : 8 bitsScan type : ProgressiveBits/(Pixel*Frame) : 0.140Stream size : 1.48 GiB (94%)Writing library : x264 core 148 r2744 b97ae06Encoding settings : cabac=1 / ref=9 / deblock=1:-1:-1 / analyse=0x3:0x113 / me=umh / subme=7 / psy=1 / psy_rd=1.00:0.00 / mixed_ref=1 / me_range=32 / chroma_me=1 / trellis=2 / 8x8dct=1 / cqm=0 / deadzone=21,11 / fast_pskip=0 / chroma_qp_offset=-2 / threads=3 / lookahead_threads=1 / sliced_threads=0 / nr=0 / decimate=1 / interlaced=0 / bluray_compat=0 / constrained_intra=0 / bframes=10 / b_pyramid=2 / b_adapt=2 / b_bias=0 / direct=1 / weightb=1 / open_gop=0 / weightp=2 / keyint=250 / keyint_min=25 / scenecut=40 / intra_refresh=0 / rc_lookahead=60 / rc=crf / mbtree=1 / crf=17.0 / qcomp=0.60 / qpmin=0 / qpmax=69 / qpstep=4 / vbv_maxrate=62500 / vbv_bufsize=78125 / crf_max=0.0 / nal_hrd=none / filler=0 / ip_ratio=1.40 / aq=1:1.00Encoded date : UTC 2017-05-16 08:44:01Tagged date : UTC 2017-05-16 18:16:20

AudioID : 2Format : AACFormat/Info : Advanced Audio CodecFormat profile : LCCodec ID : 40Duration : 1 h 31 minBit rate mode : VariableBit rate : 128 kb/sMaximum bit rate : 135 kb/sChannel(s) : 2 channelsChannel positions : Front: L RSampling rate : 48.0 kHzFrame rate : 46.875 FPS (1024 spf)Compression mode : LossyStream size : 84.1 MiB (5%)Language : RussianEncoded date : UTC 2017-05-16 08:56:01Tagged date : UTC 2017-05-16 18:16:20

Menu
</div><!--/post_body-->

Трекер:  [ 18-Май-2017 18:30 ]

  

Скачать .torrent

Размер .torrent файла 16 KB


Размер: 1.56 GB
Хэш (hash) релиза: f8f48c1c6916accb7c7ae851acd05828cf53b308

Торренты, похожие на [VIDEO] Морган Morgan скачать торрент

Форум Название Автор Размер S L Добавлен
Видео (Фильмы/Клипы) ·· [VIDEO] Фабрика / The Factory (Морган О’Нил / Morgan O'Neill) [2011, США, Австралия, триллер, криминал, детектив, HDRip][MP4, 480x] VO Galfimbul 445404582425 MB 0 0 1356341400

12:30

24-Дек-12

Еще никто не оставлял запись к записи скачать торрент [VIDEO] Морган Morgan . Будь первым!

!Обратная связь