Monsters: El continente oscuro (2014) | Lluvia de albóndigas 2 | G.I. Joe

Скачать через торрент музыку To Love-Ru Любовные неприятности - 2008-2009 г., FLAC бесплатно без регистрации torrent

Статистика раздачи
Размер:  2.62 GB   |    Зарегистрирован:  1 год 2 месяца   |    .torrent скачан:  31 раз   |   
Раздают:  1  
   
загрузка...
 
Автор Сообщение

Galfimbul

avatar Galfimbul


Любовные неприятностиОбщие характеристики:
Производство: Япония
Год выпуска: 2008-2009
Формат: FLAC (tracks+.cue)
Частота: 44100ГГц
Продолжительность: 87 треков - 7:40:42<hr class="post-hr">Альбом:
<div class="sp-wrap">
<div class="sp-head folded">2008 - To Love-Ru - OST √</div>
<div class="sp-body">
To Love-Ru - OST
Список треков:
01. Forever We Can Make It! (TV-Size) [1:33]
02. My Name Is Lala [1:16]
03. Haruna [1:18]
04. Good Morning [1:19]
05. Ukiuki. Warutsu [1:17]
06. Ki Mazui... [1:48]
07. Shikaku [1:20]
08. Run Away [1:48]
09. Nande Ko ~ Nanno !? [1:42]
10. Pinchi Tourai! [1:56]
11. Fallin'angel [1:44]
12. To Love-Ru. Samba [1:22]
13. Hito Yasumi [1:17]
14. Mousou Lover [1:25]
15. Otoko, Mise Masu! [1:31]
16. Sa Hime Sama [1:34]
17. Kui Nno Inbou [1:09]
18. Kodoku No Yami [1:19]
19. Bitter Memories [1:13]
20. Yure Ru Kimochi [1:44]
21. Higeki, Iri Masu [1:35]
22. Go! Rito [2:03]
23. Gekitou [1:14]
24. Doushite... [1:51]
25. Sentimental [1:46]
26. Let's Fanfare [1:08]
27. Theme Of To Love-Ru [1:51]
28. Rakki Chun (TV-Size) [1:31]<hr class="post-hr">
</div>
</div>
<hr class="post-hr">Синглы:
<div class="sp-wrap">
<div class="sp-head folded">2008 - To Love-Ru - OP √</div>
<div class="sp-body">
To Love-Ru - OP
Список треков:
01. Forever We Can Make It! [4:19]
02. The Last Day [3:50]
03. Forever We Can Make It! (Instrumental) [4:19]
04. The Last Day (Instrumental) [3:49]<hr class="post-hr">
To Love-Ru - ED
Список треков:
01. Rakki Chun [3:56]
02. Hoshi No Kakera [4:38]
03. Rakki Chun (Instrumental) [3:56]
04. Hoshi No Kakera (Instrumental) [4:36]<hr class="post-hr">
To Love-Ru - ED 2
Список треков:
01. Kiss No Namegata [4:04]
02. Scar [4:40]
03. Kiss No Namegata (Instrumental) [4:04]
04. Scar (Instrumental) [4:37]<hr class="post-hr">
To Love-Ru - OVA OP&ED
Список треков:
01. Yattekoi! Daisuki [3:37]
02. Appuru. Panikku!? [3:58]
03. Yattekoi! Daisuki (Instrumental) [3:36]
04. Appuru. Panikku!? (Instrumental) [3:57]<hr class="post-hr">
</div>
</div>
<hr class="post-hr">Drama CD:
<div class="sp-wrap">
<div class="sp-head folded">2008 - To Love-Ru - DJCD Dai 1 Kan √</div>
<div class="sp-body">
To Love-Ru - DJCD Dai 1 Kan
Список треков:
01. Opuningu [3:14]
02. (Kokuhaku 100 Hon Nokku) Kessakusen [5:45]
03. (Rito No Dokidokiendorufin) Kessakusen [4:01]
04. (Rito To Haruna No Torabu Ru Tokubetsu Jugyou) Kessakusen [4:55]
05. ( Hatsukoi Suuitomemori) [7:15]
06. Gesutotoku. Arai Satomi San Hen [19:53]
07. Gesutotoku . Tomatsu Haruka San Hen [17:03]
08. Endeingu [5:00]
09. Onsei Bonasutorakku [11:59]<hr class="post-hr">
To Love-Ru - DJCD Dai 2 Kan
Список треков:
01. Opuningu [3:46]
02. (Kokuhaku 100 Hon Nokku) Kessakusen [7:46]
03. (Rito No Dokidokiendorufin) Kessakusen [9:09]
04. (Rito To Haruna No Torabu Ru Tokubetsu Jugyou) Kessakusen [7:30]
05. Mousou Dorama (Itsudatte Koha Totsuzen) [7:36]
06. Gesutoto Ku. Fuku En Misato San Hen [12:27]
07. Gesutoto Ku. Kawa Sumi Ayako San Hen [10:22]
08. Endeingu [4:49]
09. Bo Nasutorakku [14:49]<hr class="post-hr">
To Love-Ru - Variety CD 1
Список треков:
01. Daisuki Mitsuke! [4:50]
02. Yuusha Rito No Bouken A-Part [15:11]
03. Chantoshiteyo Seishun [3:42]
04. Yuusha Rito No Bouken B-Part [17:51]
05. Sukato Nohajikko [4:20]<hr class="post-hr">
To Love-Ru - Variety CD 2
Список треков:
01. He Kkuchi! [3:30]
02. Haru Na, Saiaku No Tsuitachi A - Part [12:38]
03. Koi To Bikini To Ameyohou [3:55]
04. Haru Na, Saiaku No Tsuitachi B - Part [11:17]
05. Golden Trancer [3:11]<hr class="post-hr">
To Love-Ru - Variety CD 3
Список треков:
01. Yada! [4:04]
02. Bi Kan To Yami Noo Matsuri Daisakusen A-Part [11:32]
03. My Name Is 'yami-Chang' [3:50]
04. Bi Kan To Yami Noo Matsuri Daisakusen B-Part [11:17]
05. Seiren Keppeki Joshi. [4:06]<hr class="post-hr">
To Love-Ru - Variety CD 4
Список треков:
01. Watakushi Nanbawan!! [3:20]
02. O Jousama No Sounan Sa Hime Hen [13:32]
03. Mannaka Sensitive [3:58]
04. Chikutakuchikutaku Koi No Oto Tada Hen [11:50]
05. Switch Ngu! [3:14]<hr class="post-hr">
To Love-Ru - Variety CD 5
Список треков:
01. ...Cchae! [4:55]
02. Konnichiha Beibi A-Part [15:47]
03. Uitsu Su! Katarushisu [4:23]
04. Konnichiha Beibi B-Part [14:06]
05. Kun Rashikunakya Yada Yo! [4:35]<hr class="post-hr">
</div>
</div>
<hr class="post-hr">Проверка:
<div class="sp-wrap">
<div class="sp-head folded">2008 - To Love-Ru - OST</div>
<div class="sp-body">
<div class="sp-wrap">
<div class="sp-head folded">ЕАС Лог</div>
<div class="sp-body">EAC 取り込みログファイル 日付 : 25. 7月 2008, 00:00 for CD
不明なアーティスト / 不明なタイトル

使用ドライブ : PLEXTOR CD-R PREMIUM Adapter: 7 ID: 0
読み込みモード : セキュアモード (C2エラー訂正有り, 正確なデータ転送能力有り, キャッシュ無効)
読み込みサンプルオフセット訂正値 : 0
リードイン・リードアウトをオーバーリードする : はい

使用出力モード : 内蔵WAV出力ルーチン
44.100 Hz; 16 Bit; ステレオ

その他のオプション :
欠落したオフセットサンプルを無音で補完する : はい
曲の先頭と末端の無音領域を削除する : いいえ
Win NT & 2000用のクラスドライバ

範囲取り込みステータス & エラー
選択された範囲
ファイル名 F:\CDImage.wav

ピークレベル 99.9 %
範囲取り込み品質 100.0 %
CRC 2E67ECD8
コピー OK

エラーは発生しませんでした

ステータス報告完了
auCDtect: CD records authenticity detector, version 0.8.2
Copyright (c) 2004 Oleg Berngardt. All rights reserved.
Copyright (c) 2004 Alexander Djourik. All rights reserved.
------------------------------------------------------------
Processing file: [01 Forever We Can Make It! (TV-Size).wav]

------------------------------------------------------------
This track looks like CDDA with probability 100%

------------------------------------------------------------
Processing file: [02 My Name Is Lala.wav]

------------------------------------------------------------
This track looks like CDDA with probability 100%

------------------------------------------------------------
Processing file: [03 Haruna.wav]

------------------------------------------------------------
This track looks like CDDA with probability 86%

------------------------------------------------------------
Processing file: [04 Good Morning.wav]

------------------------------------------------------------
This track looks like CDDA with probability 100%

------------------------------------------------------------
Processing file: [05 Ukiuki. Warutsu.wav]

------------------------------------------------------------
This track looks like CDDA with probability 99%

------------------------------------------------------------
Processing file: [06 Ki Mazui....wav]

------------------------------------------------------------
This track looks like CDDA with probability 43%

------------------------------------------------------------
Processing file: [07 Shikaku.wav]

------------------------------------------------------------
This track looks like CDDA with probability 100%

------------------------------------------------------------
Processing file: [08 Run Away.wav]

------------------------------------------------------------
This track looks like CDDA with probability 100%

------------------------------------------------------------
Processing file: [09 Nande Ko ~ Nanno !_.wav]

------------------------------------------------------------
This track looks like CDDA with probability 100%

------------------------------------------------------------
Processing file: [10 Pinchi Tourai!.wav]

------------------------------------------------------------
This track looks like CDDA with probability 100%

------------------------------------------------------------
Processing file: [11 Fallin'angel.wav]

------------------------------------------------------------
This track looks like CDDA with probability 100%

------------------------------------------------------------
Processing file: [12 To Love-Ru. Samba.wav]

------------------------------------------------------------
This track looks like CDDA with probability 100%

------------------------------------------------------------
Processing file: [13 Hito Yasumi.wav]

------------------------------------------------------------
This track looks like MPEG with probability 92%

------------------------------------------------------------
Processing file: [14 Mousou Lover.wav]

------------------------------------------------------------
This track looks like CDDA with probability 99%

------------------------------------------------------------
Processing file: [15 Otoko, Mise Masu!.wav]

------------------------------------------------------------
This track looks like CDDA with probability 100%

------------------------------------------------------------
Processing file: [16 Sa Hime Sama.wav]

------------------------------------------------------------
This track looks like CDDA with probability 100%

------------------------------------------------------------
Processing file: [17 Kui Nno Inbou.wav]

------------------------------------------------------------
This track looks like CDDA with probability 43%

------------------------------------------------------------
Processing file: [18 Kodoku No Yami.wav]

------------------------------------------------------------
This track looks like CDDA with probability 100%

------------------------------------------------------------
Processing file: [19 Bitter Memories.wav]

------------------------------------------------------------
This track looks like CDDA with probability 99%

------------------------------------------------------------
Processing file: [20 Yure Ru Kimochi.wav]

------------------------------------------------------------
This track looks like MPEG with probability 90%

------------------------------------------------------------
Processing file: [21 Higeki, Iri Masu.wav]

------------------------------------------------------------
This track looks like CDDA with probability 100%

------------------------------------------------------------
Processing file: [22 Go! Rito.wav]

------------------------------------------------------------
This track looks like CDDA with probability 100%

------------------------------------------------------------
Processing file: [23 Gekitou.wav]

------------------------------------------------------------
This track looks like CDDA with probability 99%

------------------------------------------------------------
Processing file: [24 Doushite....wav]

------------------------------------------------------------
This track looks like CDDA with probability 100%

------------------------------------------------------------
Processing file: [25 Sentimental.wav]

------------------------------------------------------------
This track looks like CDDA with probability 86%

------------------------------------------------------------
Processing file: [26 Let's Fanfare.wav]

------------------------------------------------------------
This track looks like CDDA with probability 100%

------------------------------------------------------------
Processing file: [27 Theme Of To Love-Ru.wav]

------------------------------------------------------------
This track looks like CDDA with probability 100%

------------------------------------------------------------
Processing file: [28 Rakki Chun (TV-Size).wav]

------------------------------------------------------------
This track looks like CDDA with probability 100%
</div>
</div>
<div class="sp-wrap">
<div class="sp-head folded">ЕАС Лог</div>
<div class="sp-body">EAC 展開 ログファイル 日付: 22. 4月 2008, 15:58 for CD
THYME / Unknown Title

使用ドライブ : PLEXTOR DVDR PX-755A Adapter: 0 ID: 0
読み込みモード : セキュア(C2 : NO / 正確なデータ転送力 : YES / キャッシュ無効 : YES)
読み込みオフセット訂正値 : 0
リードインとリードアウトをオーバーリードする : Yes

使用出力フォーマット : 内部 WAV ルーチン
44.100 Hz; 16 Bit; ステレオ

その他のオプション :
消失したオフセットサンプルを無音に置き換える : Yes
曲の先頭と末尾の無音部を削除する : No
標準 Win32 の Win NT & 2000 用

展開範囲ステータスとエラー
選択された範囲
ファイル名 G:\[EAC] To LOVEる -とらぶる- OP - forever we can make it!/THYME [080423] (ape+cue)\CDImage.wav

ピークレベル 100.0 %
選択範囲品質 100.0 %
CRC 25230A77
コピー OK

エラーは検出されませんでした

ステータスの報告終了
auCDtect: CD records authenticity detector, version 0.8.2
Copyright (c) 2004 Oleg Berngardt. All rights reserved.
Copyright (c) 2004 Alexander Djourik. All rights reserved.
------------------------------------------------------------
Processing file: [1 Forever We Can Make It!.wav]

------------------------------------------------------------
This track looks like CDDA with probability 100%

------------------------------------------------------------
Processing file: [2 The Last Day.wav]

------------------------------------------------------------
This track looks like CDDA with probability 100%

------------------------------------------------------------
Processing file: [3 Forever We Can Make It! (Instrumental).wav]

------------------------------------------------------------
This track looks like CDDA with probability 100%

------------------------------------------------------------
Processing file: [4 The Last Day (Instrumental).wav]

------------------------------------------------------------
This track looks like CDDA with probability 100%
</div>
</div>
<div class="sp-wrap">
<div class="sp-head folded">ЕАС Лог</div>
<div class="sp-body">Exact Audio Copy V0.99 prebeta 3 from 28. July 2007

EAC extraction logfile from 27. May 2008, 14:50

Anna / To LOVEる-とらぶる- ED 「ラッキーチューン」

Used drive : MATSHITADVD-RAM SW-9585S Adapter: 0 ID: 0

Read mode : Secure
Utilize accurate stream : Yes
Defeat audio cache : No
Make use of C2 pointers : Yes

Read offset correction : 72
Overread into Lead-In and Lead-Out : No
Fill up missing offset samples with silence : Yes
Delete leading and trailing silent blocks : No
Null samples used in CRC calculations : No
Used interface : Native Win32 interface for Win NT & 2000

Used output format : User Defined Encoder
Selected bitrate : 1024 kBit/s
Quality : High
Add ID3 tag : No
Command line compressor : C:\Program Files\Exact Audio Copy\ttaenc-3\ttaenc.exe

TOC of the extracted CD

Track | Start | Length | Start sector | End sector
---------------------------------------------------------
1 | 0:00.00 | 3:56.35 | 0 | 17734
2 | 3:56.35 | 4:38.18 | 17735 | 38602
3 | 8:34.53 | 3:56.36 | 38603 | 56338
4 | 12:31.14 | 4:36.31 | 56339 | 77069

Range status and errors

Selected range

Filename D:\[EAC] Anna - To LOVEる-とらぶる- ED 「ラッキーチューン」 (080528 tta+cue+jpg rr3)\Anna - To LOVEる-とらぶる- ED 「ラッキーチューン」.wav

Peak level 100.0 %
Range quality 99.9 %
Copy CRC C869D73D
Copy OK

No errors occurred

End of status report
auCDtect: CD records authenticity detector, version 0.8.2
Copyright (c) 2004 Oleg Berngardt. All rights reserved.
Copyright (c) 2004 Alexander Djourik. All rights reserved.
------------------------------------------------------------
Processing file: [1 Rakki Chun.wav]

------------------------------------------------------------
This track looks like CDDA with probability 100%

------------------------------------------------------------
Processing file: [2 Hoshi No Kakera.wav]

------------------------------------------------------------
This track looks like CDDA with probability 99%

------------------------------------------------------------
Processing file: [3 Rakki Chun (Instrumental).wav]

------------------------------------------------------------
This track looks like CDDA with probability 100%

------------------------------------------------------------
Processing file: [4 Hoshi No Kakera (Instrumental).wav]

------------------------------------------------------------
This track looks like CDDA with probability 100%
</div>
</div>
<div class="sp-wrap">
<div class="sp-head folded">ЕАС Лог</div>
<div class="sp-body">V0.99 prebeta 1 from 25. May 2007

EAC 展開 ログファイル 日付: 27. 8月 2008, 10:23

Anna / kissの行方

使用ドライブ : HL-DT-STDVDRAM GSA-H40N Adapter: 0 ID: 0

読み込みモード : :
: Yes
: No
: Yes

読み込みオフセット訂正値 : : 637
リードインとリードアウトをオーバーリードする : No
消失したオフセットサンプルを無音に置き換える : Yes
曲の先頭と末尾の無音部を削除する : No
: 標準 Win32 の Win NT & 2000 用

使用出力フォーマット : : 内部 WAV ルーチン
: 44.100 Hz; 16 Bit; ステレオ

| | | |
--------------------------------------------
1 | 0:00.00 | 4:03.47 | 0 | 18271
2 | 4:03.47 | 4:39.41 | 18272 | 39237
3 | 8:43.13 | 4:03.47 | 39238 | 57509
4 | 12:46.60 | 4:36.66 | 57510 | 78275

展開範囲ステータスとエラー

選択された範囲

ファイル名 E:\Kissの行方\GNCL-0039.wav

ピークレベル 100.0 %
選択範囲品質 100.0 %
コピー CRC 6C449581
コピー OK

エラーは検出されませんでした

ステータスの報告終了
auCDtect: CD records authenticity detector, version 0.8.2
Copyright (c) 2004 Oleg Berngardt. All rights reserved.
Copyright (c) 2004 Alexander Djourik. All rights reserved.
------------------------------------------------------------
Processing file: [1 Kiss No Namegata.wav]

------------------------------------------------------------
This track looks like CDDA with probability 100%

------------------------------------------------------------
Processing file: [2 Scar.wav]

------------------------------------------------------------
This track looks like CDDA with probability 100%

------------------------------------------------------------
Processing file: [3 Kiss No Namegata (Instrumental).wav]

------------------------------------------------------------
This track looks like CDDA with probability 100%

------------------------------------------------------------
Processing file: [4 Scar (Instrumental).wav]

------------------------------------------------------------
This track looks like CDDA with probability 100%
</div>
</div>
<div class="sp-wrap">
<div class="sp-head folded">ЕАС Лог</div>
<div class="sp-body">Exact Audio Copy V0.99 prebeta 4 from 23. January 2008

EAC 取り込みログファイル 日付 : 25. 3月 2009, 20:12

ララ&春菜 (CV:戸松遥&矢作紗友里) / やってこい!ダイスキ/あっぷる・ぱにっく!?

使用ドライブ : HL-DT-STDVDRAM GSA-H42N Adapter: 0 ID: 0

読み込みモード : セキュアモード
ドライブが正確なデータ転送能力を持つ : はい
オーディオキャッシュを使用できる : いいえ
C2エラー情報を検出する : はい

読み込みサンプルオフセット訂正値 : 637
リードイン・リードアウトをオーバーリードする : いいえ
欠落したオフセットサンプルを無音で補完する : はい
曲の先頭と末端の無音領域を削除する : いいえ
CRC計算で無音のサンプルを使用するか : はい
使用インターフェース : Win NT & 2000用のクラスドライバ

使用出力モード : 内蔵WAV出力ルーチン
サンプルフォーマット : 44.100 Hz; 16 Bit; ステレオ

TOC情報を抜き出します

トラック | スタート | 長さ | 始めのセクター | 最終セクター
----------------------------------------------------------------
1 | 0:00.00 | 3:37.11 | 0 | 16285
2 | 3:37.11 | 3:57.64 | 16286 | 34124
3 | 7:35.00 | 3:36.35 | 34125 | 50359
4 | 11:11.35 | 3:57.14 | 50360 | 68148

範囲取り込みステータス & エラー

選択された範囲

ファイル名 E:\eac1

ピークレベル 99.9 %
範囲取り込み品質 100.0 %
コピーCRC D9FD6D8F
コピー OK

エラーは発生しませんでした

ステータス報告完了
auCDtect: CD records authenticity detector, version 0.8.2
Copyright (c) 2004 Oleg Berngardt. All rights reserved.
Copyright (c) 2004 Alexander Djourik. All rights reserved.
------------------------------------------------------------
Processing file: [1 Yattekoi! Daisuki.wav]

------------------------------------------------------------
This track looks like CDDA with probability 99%

------------------------------------------------------------
Processing file: [2 Appuru. Panikku!_.wav]

------------------------------------------------------------
This track looks like CDDA with probability 100%

------------------------------------------------------------
Processing file: [3 Yattekoi! Daisuki (Instrumental).wav]

------------------------------------------------------------
This track looks like CDDA with probability 100%

------------------------------------------------------------
Processing file: [4 Appuru. Panikku!_ (Instrumental).wav]

------------------------------------------------------------
This track looks like CDDA with probability 100%
</div>
</div>
<div class="sp-wrap">
<div class="sp-head folded">ЕАС Лог</div>
<div class="sp-body">EAC 取り込みログファイル 日付 : 25. 6月 2008, 00:00 for CD
不明なアーティスト / 不明なタイトル

使用ドライブ : PLEXTOR CD-R PREMIUM Adapter: 7 ID: 0
読み込みモード : セキュアモード (C2エラー訂正有り, 正確なデータ転送能力有り, キャッシュ無効)
読み込みサンプルオフセット訂正値 : 0
リードイン・リードアウトをオーバーリードする : はい

使用出力モード : 内蔵WAV出力ルーチン
44.100 Hz; 16 Bit; ステレオ

その他のオプション :
欠落したオフセットサンプルを無音で補完する : はい
曲の先頭と末端の無音領域を削除する : いいえ
Win NT & 2000用のクラスドライバ

範囲取り込みステータス & エラー
選択された範囲
ファイル名 F:\CDImage.wav

ピークレベル 98.8 %
範囲取り込み品質 100.0 %
CRC 6D78B07C
コピー OK

エラーは発生しませんでした

ステータス報告完了
auCDtect: CD records authenticity detector, version 0.8.2
Copyright (c) 2004 Oleg Berngardt. All rights reserved.
Copyright (c) 2004 Alexander Djourik. All rights reserved.
------------------------------------------------------------
Processing file: [1 Opuningu.wav]

------------------------------------------------------------
This track looks like CDDA with probability 100%

------------------------------------------------------------
Processing file: [2 (Kokuhaku 100 Hon Nokku) Kessakusen.wav]

------------------------------------------------------------
This track looks like CDDA with probability 100%

------------------------------------------------------------
Processing file: [3 (Rito No Dokidokiendorufin) Kessakusen.wav]

------------------------------------------------------------
This track looks like CDDA with probability 100%

------------------------------------------------------------
Processing file: [4 (Rito To Haruna No Torabu Ru Tokubetsu Jugyou) Kessakusen.wav]

------------------------------------------------------------
This track looks like CDDA with probability 100%

------------------------------------------------------------
Processing file: [5 ( Hatsukoi Suuitomemori).wav]

------------------------------------------------------------
This track looks like CDDA with probability 100%

------------------------------------------------------------
Processing file: [6 Gesutotoku. Arai Satomi San Hen.wav]

------------------------------------------------------------
This track looks like CDDA with probability 99%

------------------------------------------------------------
Processing file: [7 Gesutotoku . Tomatsu Haruka San Hen.wav]

------------------------------------------------------------
This track looks like CDDA with probability 100%

------------------------------------------------------------
Processing file: [8 Endeingu.wav]

------------------------------------------------------------
This track looks like CDDA with probability 100%

------------------------------------------------------------
Processing file: [9 Onsei Bonasutorakku.wav]

------------------------------------------------------------
This track looks like CDDA with probability 100%
</div>
</div>
<div class="sp-wrap">
<div class="sp-head folded">ЕАС Лог</div>
<div class="sp-body">EAC 取り込みログファイル 日付 : 22. 8月 2008, 00:00 for CD
不明なアーティスト / 不明なタイトル

使用ドライブ : PLEXTOR CD-R PREMIUM Adapter: 7 ID: 0
読み込みモード : セキュアモード (C2エラー訂正有り, 正確なデータ転送能力有り, キャッシュ無効)
読み込みサンプルオフセット訂正値 : 0
リードイン・リードアウトをオーバーリードする : はい

使用出力モード : 内蔵WAV出力ルーチン
44.100 Hz; 16 Bit; ステレオ

その他のオプション :
欠落したオフセットサンプルを無音で補完する : はい
曲の先頭と末端の無音領域を削除する : いいえ
Win NT & 2000用のクラスドライバ

範囲取り込みステータス & エラー
選択された範囲
ファイル名 F:\CDImage.wav

ピークレベル 96.6 %
範囲取り込み品質 99.9 %
CRC 8B4BA54A
コピー OK

エラーは発生しませんでした

ステータス報告完了
auCDtect: CD records authenticity detector, version 0.8.2
Copyright (c) 2004 Oleg Berngardt. All rights reserved.
Copyright (c) 2004 Alexander Djourik. All rights reserved.
------------------------------------------------------------
Processing file: [1 Opuningu.wav]

------------------------------------------------------------
This track looks like CDDA with probability 100%

------------------------------------------------------------
Processing file: [2 (Kokuhaku 100 Hon Nokku) Kessakusen.wav]

------------------------------------------------------------
This track looks like CDDA with probability 100%

------------------------------------------------------------
Processing file: [3 (Rito No Dokidokiendorufin) Kessakusen.wav]

------------------------------------------------------------
This track looks like CDDA with probability 100%

------------------------------------------------------------
Processing file: [4 (Rito To Haruna No Torabu Ru Tokubetsu Jugyou) Kessakusen.wav]

------------------------------------------------------------
This track looks like CDDA with probability 100%

------------------------------------------------------------
Processing file: [5 Mousou Dorama (Itsudatte Koha Totsuzen).wav]

------------------------------------------------------------
This track looks like CDDA with probability 100%

------------------------------------------------------------
Processing file: [6 Gesutoto Ku. Fuku En Misato San Hen.wav]

------------------------------------------------------------
This track looks like CDDA with probability 100%

------------------------------------------------------------
Processing file: [7 Gesutoto Ku. Kawa Sumi Ayako San Hen.wav]

------------------------------------------------------------
This track looks like CDDA with probability 100%

------------------------------------------------------------
Processing file: [8 Endeingu.wav]

------------------------------------------------------------
This track looks like CDDA with probability 100%

------------------------------------------------------------
Processing file: [9 Bo Nasutorakku.wav]

------------------------------------------------------------
This track looks like CDDA with probability 100%
</div>
</div>
<div class="sp-wrap">
<div class="sp-head folded">ЕАС Лог</div>
<div class="sp-body">EAC 取り込みログファイル 日付 : 3. 7月 2008, 16:09 for CD
Various / To LOVEる とらぶる Variety CD その1

使用ドライブ : Optiarc DVD RW AD-7540A Adapter: 1 ID: 0
読み込みモード : セキュアモード (C2エラー訂正有り, 正確なデータ転送能力有り, キャッシュ無効)
読み込みサンプルオフセット訂正値 : 18
リードイン・リードアウトをオーバーリードする : いいえ

使用出力モード : D:\TECH_Win\OnLineSoft 2\エンコーダー\Monkey's Audio\MAC.exe (Monkey's Audio Lossless Encoder)
Fast Lossless Compression

その他のオプション :
欠落したオフセットサンプルを無音で補完する : はい
曲の先頭と末端の無音領域を削除する : いいえ
外部ASPIインターフェイス

範囲取り込みステータス & エラー
選択された範囲
ファイル名 D:\TEMP\CDImage.wav

ピークレベル 99.9 %
範囲取り込み品質 100.0 %
CRC B4CAF366
コピー OK

エラーは発生しませんでした

ステータス報告完了
auCDtect: CD records authenticity detector, version 0.8.2
Copyright (c) 2004 Oleg Berngardt. All rights reserved.
Copyright (c) 2004 Alexander Djourik. All rights reserved.
------------------------------------------------------------
Processing file: [1 Daisuki Mitsuke!.wav]

------------------------------------------------------------
This track looks like CDDA with probability 100%

------------------------------------------------------------
Processing file: [2 Yuusha Rito No Bouken A-Part.wav]

------------------------------------------------------------
This track looks like CDDA with probability 100%

------------------------------------------------------------
Processing file: [3 Chantoshiteyo Seishun.wav]

------------------------------------------------------------
This track looks like CDDA with probability 100%

------------------------------------------------------------
Processing file: [4 Yuusha Rito No Bouken B-Part.wav]

------------------------------------------------------------
This track looks like CDDA with probability 100%

------------------------------------------------------------
Processing file: [5 Sukato Nohajikko.wav]

------------------------------------------------------------
This track looks like CDDA with probability 100%
</div>
</div>
<div class="sp-wrap">
<div class="sp-head folded">ЕАС Лог</div>
<div class="sp-body">EAC 取り込みログファイル 日付 : 21. 8月 2008, 16:25 for CD
Various / To LOVEる とらぶる Variety CD その2

使用ドライブ : Optiarc DVD RW AD-7540A Adapter: 1 ID: 0
読み込みモード : セキュアモード (C2エラー訂正有り, 正確なデータ転送能力有り, キャッシュ無効)
読み込みサンプルオフセット訂正値 : 18
リードイン・リードアウトをオーバーリードする : いいえ

使用出力モード : D:\TECH_Win\OnLineSoft 2\エンコーダー\Monkey's Audio\MAC.exe (Monkey's Audio Lossless Encoder)
Fast Lossless Compression

その他のオプション :
欠落したオフセットサンプルを無音で補完する : はい
曲の先頭と末端の無音領域を削除する : いいえ
外部ASPIインターフェイス

範囲取り込みステータス & エラー
選択された範囲
ファイル名 D:\TEMP\CDImage.wav

ピークレベル 99.8 %
範囲取り込み品質 100.0 %
CRC 06C09D02
コピー OK

エラーは発生しませんでした

ステータス報告完了
auCDtect: CD records authenticity detector, version 0.8.2
Copyright (c) 2004 Oleg Berngardt. All rights reserved.
Copyright (c) 2004 Alexander Djourik. All rights reserved.
------------------------------------------------------------
Processing file: [1 He Kkuchi!.wav]

------------------------------------------------------------
This track looks like CDDA with probability 100%

------------------------------------------------------------
Processing file: [2 Haru Na, Saiaku No Tsuitachi A - Part.wav]

------------------------------------------------------------
This track looks like CDDA with probability 100%

------------------------------------------------------------
Processing file: [3 Koi To Bikini To Ameyohou.wav]

------------------------------------------------------------
This track looks like CDDA with probability 100%

------------------------------------------------------------
Processing file: [4 Haru Na, Saiaku No Tsuitachi B - Part.wav]

------------------------------------------------------------
This track looks like CDDA with probability 100%

------------------------------------------------------------
Processing file: [5 Golden Trancer.wav]

------------------------------------------------------------
This track looks like CDDA with probability 100%
</div>
</div>
<div class="sp-wrap">
<div class="sp-head folded">ЕАС Лог</div>
<div class="sp-body">V0.99 prebeta 1 from 25. May 2007

EAC 展開 ログファイル 日付: 4. 10月 2008, 12:00

Various / To LOVEる -とらぶる- Variety CD その3

使用ドライブ : HL-DT-STDVDRAM GSA-H40N Adapter: 0 ID: 0

読み込みモード : :
: Yes
: No
: Yes

読み込みオフセット訂正値 : : 637
リードインとリードアウトをオーバーリードする : No
消失したオフセットサンプルを無音に置き換える : Yes
曲の先頭と末尾の無音部を削除する : No
: 標準 Win32 の Win NT & 2000 用

使用出力フォーマット : : 内部 WAV ルーチン
: 44.100 Hz; 16 Bit; ステレオ

| | | |
--------------------------------------------
1 | 0:00.00 | 4:04.19 | 0 | 18318
2 | 4:04.19 | 11:31.56 | 18319 | 70199
3 | 15:36.00 | 3:49.48 | 70200 | 87422
4 | 19:25.48 | 11:16.66 | 87423 | 138188
5 | 30:42.39 | 4:06.02 | 138189 | 156640

展開範囲ステータスとエラー

選択された範囲

ファイル名 D:\EAC\新しいフォルダ\GNCA-1187.wav

ピークレベル 99.9 %
選択範囲品質 100.0 %
コピー CRC ED056056
コピー OK

エラーは検出されませんでした

ステータスの報告終了
auCDtect: CD records authenticity detector, version 0.8.2
Copyright (c) 2004 Oleg Berngardt. All rights reserved.
Copyright (c) 2004 Alexander Djourik. All rights reserved.
------------------------------------------------------------
Processing file: [1 Yada!.wav]

------------------------------------------------------------
This track looks like CDDA with probability 100%

------------------------------------------------------------
Processing file: [2 Bi Kan To Yami Noo Matsuri Daisakusen A-Part.wav]

------------------------------------------------------------
This track looks like CDDA with probability 100%

------------------------------------------------------------
Processing file: [3 My Name Is 'yami-Chang'.wav]

------------------------------------------------------------
This track looks like CDDA with probability 100%

------------------------------------------------------------
Processing file: [4 Bi Kan To Yami Noo Matsuri Daisakusen B-Part.wav]

------------------------------------------------------------
This track looks like CDDA with probability 100%

------------------------------------------------------------
Processing file: [5 Seiren Keppeki Joshi..wav]

------------------------------------------------------------
This track looks like CDDA with probability 100%
</div>
</div>
<div class="sp-wrap">
<div class="sp-head folded">ЕАС Лог</div>
<div class="sp-body">Отсутствует.
auCDtect: CD records authenticity detector, version 0.8.2
Copyright (c) 2004 Oleg Berngardt. All rights reserved.
Copyright (c) 2004 Alexander Djourik. All rights reserved.
------------------------------------------------------------
Processing file: [1 Watakushi Nanbawan!!.wav]

------------------------------------------------------------
This track looks like CDDA with probability 100%

------------------------------------------------------------
Processing file: [2 O Jousama No Sounan Sa Hime Hen.wav]

------------------------------------------------------------
This track looks like CDDA with probability 100%

------------------------------------------------------------
Processing file: [3 Mannaka Sensitive.wav]

------------------------------------------------------------
This track looks like CDDA with probability 100%

------------------------------------------------------------
Processing file: [4 Chikutakuchikutaku Koi No Oto Tada Hen.wav]

------------------------------------------------------------
This track looks like CDDA with probability 100%

------------------------------------------------------------
Processing file: [5 Switch Ngu!.wav]

------------------------------------------------------------
This track looks like CDDA with probability 100%
</div>
</div>
<div class="sp-wrap">
<div class="sp-head folded">ЕАС Лог</div>
<div class="sp-body">Отсутствует.
auCDtect: CD records authenticity detector, version 0.8.2
Copyright (c) 2004 Oleg Berngardt. All rights reserved.
Copyright (c) 2004 Alexander Djourik. All rights reserved.
------------------------------------------------------------
Processing file: [1 ...Cchae!.wav]

------------------------------------------------------------
This track looks like CDDA with probability 100%

------------------------------------------------------------
Processing file: [2 Konnichiha Beibi A-Part.wav]

------------------------------------------------------------
This track looks like CDDA with probability 100%

------------------------------------------------------------
Processing file: [3 Uitsu Su! Katarushisu.wav]

------------------------------------------------------------
This track looks like CDDA with probability 100%

------------------------------------------------------------
Processing file: [4 Konnichiha Beibi B-Part.wav]

------------------------------------------------------------
This track looks like CDDA with probability 100%

------------------------------------------------------------
Processing file: [5 Kun Rashikunakya Yada Yo!.wav]

------------------------------------------------------------
This track looks like CDDA with probability 100%
</div>
</div>
</div>
</div>
<hr class="post-hr">Дополнительно: - для альбома гарантируется восстановление исходного образа склеиванием файлов (например, фубаром) и возможность прожига на диск при помощи прилагаемого CUE.# - мы не ручаемся за точность снятия образа, т.к. отсутствует лог об извлечении, либо CRC образа не совпадает с указанным в логе. Приятного прослушивания </div><!--/post_body-->

Трекер:  [ 18-Май-2017 00:30 ]

  

Скачать .torrent

Размер .torrent файла 35 KB


Размер: 2.62 GB
Хэш (hash) релиза: 722e0047ea3d19f3f12efb34b391112daa07bc37

Еще никто не оставлял запись к записи скачать торрент To Love-Ru Любовные неприятности - 2008-2009 г., FLAC . Будь первым!

!Обратная связь