[UNCENSORED]Caribbeancom 071718-709 mp4 | Прожекторперисхилтон [эфир от 04.03] (2017) HDTVRip | Télécharger Part 11

Скачать через торрент [VIDEO] Неуловимые мстители: Трилогия бесплатно русская версия torrent активатор

Статистика раздачи
Размер:  2.39 GB   |    Зарегистрирован:  1 год 2 месяца   |    .torrent скачан:  68 раз   |   
Раздают:  1  
   
загрузка...
 
Автор Сообщение

Galfimbul

avatar Galfimbul


Неуловимые мстители: Трилогия<hr class="post-hr"> <hr class="post-hr">
Неуловимые мстители<hr class="post-hr">
<hr class="post-hr">Год выпуска: 1966
Страна: СССР
Жанр: детский, приключения, боевик
Продолжительность: 01:13:50
Перевод: не требуется
Cубтитры: нет<hr class="post-hr">Режиссер: Эдмонд Кеосаян<hr class="post-hr">В ролях: Виктор Косых, Михаил Метёлкин, Василий Васильев, Валентина Курдюкова, Борис Сичкин, Лев Свердлин, Ефим Копелян, Владимир Трещалов, Инна Чурикова, Савелий Крамаров, Надежда Федосова, Глеб Стриженов, Владимир Белокуров, Александр Милютин, Олег Савосин, Александр Пархоменко, Геннадий Юхтин, Павел Винник, Николай Горлов, Александр Денисов, Иван Жеваго, Сергей Ильд, Юрий Киреев, Виктор Колпаков, Виктор Уральский, Давид Кеосаян, Евгений Весник (голос Сидора Лютого) .<hr class="post-hr">Описание: Бывший гимназист Валерка, веселый отчаянный Яшка-цыган, оставшиеся сиротами Данька и его сестренка Ксанка дали клятву внедриться в отряд к атаману Бурнашу и отомстить ему и его банде за смерть отца Даньки. Под видом сына старого друга атамана Данька проникает в отряд Бурнаша. Однако бандиты сумели узнать об этом. Даньку ждет казнь, но друзья на то и друзья, чтобы не бросить своего товарища в беде.<hr class="post-hr"> Релиз группы <hr class="post-hr">Качество: DVDRip / рип с DVD5 "Крупный план"
Формат: MP4
Видео кодек: H.264
Аудио кодек: AAC
Видео: 640x270 AR:2.37 1080 kbps 25 fps
Аудио: 2ch 48 kHz 128 kbps<hr class="post-hr">
<div class="sp-wrap">
<div class="sp-head folded">Logx264</div>
<div class="sp-body">avs [info]: 640x270p 1:1 @ 25/1 fps (cfr)
x264 [info]: using SAR=1/1
x264 [info]: using cpu capabilities: MMX2 SSE2Fast SSSE3 SSE4.2 AVX FMA3 AVX2 LZCNT BMI2
x264 [info]: profile High, level 4.1

x264 [info]: frame I:644 Avg QP:20.32 size: 30405
x264 [info]: frame P:24958 Avg QP:23.77 size: 10791
x264 [info]: frame B:85149 Avg QP:25.60 size: 3629
x264 [info]: consecutive B-frames: 1.5% 2.2% 8.2% 33.6% 17.6% 29.1% 4.1% 1.5% 0.8% 1.4%
x264 [info]: mb I I16..4: 2.5% 78.4% 19.0%
x264 [info]: mb P I16..4: 0.2% 8.6% 1.2% P16..4: 33.5% 35.2% 16.3% 2.7% 0.3% skip: 2.0%
x264 [info]: mb B I16..4: 0.0% 1.0% 0.2% B16..8: 33.3% 20.8% 4.2% direct: 7.8% skip:32.7% L0:37.9% L1:38.7% BI:23.4%
x264 [info]: 8x8 transform intra:84.7% inter:58.0%
x264 [info]: direct mvs spatial:96.5% temporal:3.5%
x264 [info]: coded y,uvDC,uvAC intra: 94.7% 77.5% 47.8% inter: 33.6% 21.9% 6.0%
x264 [info]: i16 v,h,dc,p: 31% 19% 14% 36%
x264 [info]: i8 v,h,dc,ddl,ddr,vr,hd,vl,hu: 8% 8% 7% 10% 14% 13% 14% 12% 15%
x264 [info]: i4 v,h,dc,ddl,ddr,vr,hd,vl,hu: 8% 8% 4% 9% 15% 14% 15% 12% 16%
x264 [info]: i8c dc,h,v,p: 35% 29% 19% 17%
x264 [info]: Weighted P-Frames: Y:49.8% UV:28.9%
x264 [info]: ref P L0: 42.9% 14.3% 14.1% 7.5% 5.2% 4.6% 3.6% 2.3% 2.1% 2.2% 1.1% 0.0%
x264 [info]: ref B L0: 79.5% 8.7% 4.0% 2.4% 1.8% 1.5% 1.2% 0.7% 0.4%
x264 [info]: ref B L1: 96.6% 3.4%
x264 [info]: kb/s:1079.78

encoded 110751 frames, 24.63 fps, 1079.78 kb/s
GeneralComplete name : D:\Torrents\Неуловимые мстители.Трилогия.1966-1971.DVDRip.x264.640x\Неуловимые мстители.1966.DVDRip.x264.640x.rip by Frost O.S.mp4Format : MPEG-4Format profile : Base MediaCodec ID : isom (isom/avc1)File size : 642 MiBDuration : 1 h 13 minOverall bit rate mode : VariableOverall bit rate : 1 216 kb/sMovie name : Неуловимые мстители 1966 DVDRip x264 640x rip by Frost O SDirector : Эдмонд КеосаянActor : Виктор Косых / Михаил Метёлкин / Василий Васильев / Валентина Курдюкова / Борис Сичкин / Лев Свердлин / Ефим Копелян / Владимир Трещалов / Инна Чурикова / Савелий Крамаров / Надежда Федосова / Глеб Стриженов / Владимир Белокуров / Александр Милютин / Олег Савосин / Александр Пархоменко / Геннадий Юхтин / Павел Винник / Николай Горлов / Александр Денисов / Иван Жеваго / Сергей Ильд / Юрий Киреев / Виктор Колпаков / Виктор Уральский / Давид Кеосаян / Евгений Весник (голос Сидора Лютого) .ContentType : Short FilmEncoded date : UTC 2017-05-17 16:02:12Tagged date : UTC 2017-05-17 16:02:59Writing application : MkvToMp4 version: 0.224 (x64)Cover : YesLongDescription : Бывший гимназист Валерка, веселый отчаянный Яшка-цыган, оставшиеся сиротами Данька и его сестренка Ксанка дали клятву внедриться в отряд к атаману Бурнашу и отомстить ему и его банде за смерть отца Даньки. Под видом сына старого друга атамана Данька проникает в отряд Бурнаша. Однако бандиты сумели узнать об этом. Даньку ждет казнь, но друзья на то и друзья, чтобы не бросить своего товарища в беде.

VideoID : 1Format : AVCFormat/Info : Advanced Video CodecFormat profile : [email protected] settings, CABAC : YesFormat settings, ReFrames : 10 framesCodec ID : avc1Codec ID/Info : Advanced Video CodingDuration : 1 h 13 minBit rate : 1 080 kb/sMaximum bit rate : 4 365 kb/sWidth : 640 pixelsHeight : 270 pixelsDisplay aspect ratio : 2.40:1Frame rate mode : ConstantFrame rate : 25.000 FPSColor space : YUVChroma subsampling : 4:2:0Bit depth : 8 bitsScan type : ProgressiveBits/(Pixel*Frame) : 0.250Stream size : 570 MiB (89%)Writing library : x264 core 148 r2744 b97ae06Encoding settings : cabac=1 / ref=10 / deblock=1:-1:-1 / analyse=0x3:0x133 / me=umh / subme=11 / psy=1 / psy_rd=0.95:0.00 / mixed_ref=1 / me_range=48 / chroma_me=1 / trellis=2 / 8x8dct=1 / cqm=0 / deadzone=21,11 / fast_pskip=0 / chroma_qp_offset=-2 / threads=6 / lookahead_threads=1 / sliced_threads=0 / nr=0 / decimate=0 / interlaced=0 / bluray_compat=0 / constrained_intra=0 / bframes=9 / b_pyramid=2 / b_adapt=2 / b_bias=0 / direct=3 / weightb=1 / open_gop=0 / weightp=2 / keyint=250 / keyint_min=25 / scenecut=40 / intra_refresh=0 / rc=2pass / mbtree=0 / bitrate=1080 / ratetol=1.0 / qcomp=0.65 / qpmin=0 / qpmax=69 / qpstep=4 / cplxblur=20.0 / qblur=0.5 / ip_ratio=1.40 / pb_ratio=1.30 / aq=1:1.00Language : EnglishEncoded date : UTC 2017-05-17 16:02:12Tagged date : UTC 2017-05-17 16:02:31Color range : LimitedColor primaries : BT.601 PALTransfer characteristics : BT.470 System B, BT.470 System GMatrix coefficients : BT.601

AudioID : 2Format : AACFormat/Info : Advanced Audio CodecFormat profile : LCCodec ID : 40Duration : 1 h 13 minBit rate mode : VariableBit rate : 128 kb/sMaximum bit rate : 133 kb/sChannel(s) : 2 channelsChannel positions : Front: L RSampling rate : 48.0 kHzFrame rate : 46.875 FPS (1024 spf)Compression mode : LossyStream size : 67.6 MiB (11%)Language : RussianDefault : YesAlternate group : 1Encoded date : UTC 2017-05-17 16:02:20Tagged date : UTC 2017-05-17 16:02:31
</div>
</div>
Новые приключения неуловимых<hr class="post-hr">
<hr class="post-hr">Год выпуска: 1968
Страна: СССР
Жанр: детский, приключения, боевик
Продолжительность: 01:17:44
Перевод: не требуется
Cубтитры: нет<hr class="post-hr">Режиссер: Эдмонд Кеосаян<hr class="post-hr">В ролях: Михаил Метёлкин, Василий Васильев, Виктор Косых, Валентина Курдюкова, Армен Джигарханян, Борис Сичкин, Аркадий Толбузин, Владимир Ивашов, Ефим Копелян, Константин Сорокин, Иван Переверзев, Николай Федорцов, Евгений Весник, Сергей Филиппов, Савелий Крамаров, Юрий Мартынов, Галина Рыбак, Светлана Светличная, Валентина Березуцкая, Владимир Белокуров, Виктор Колпаков, Станислав Чекан, Иван Савкин, Леонид Чубаров, Юрий Боголюбов, Иван Жеваго, Людмила Карауш, Зоя Толбузина, Эдуард Абалов (Абалян), Лев Поляков, Алексей Бахарь, Эммануил Геллер, Валентин Кулик, Ян Френкель, Анатолий Бурдо, Аркадий Арзуманян, Олег Роге, Лев Фричинский, Иван Турченков<hr class="post-hr">Описание: Крым накануне полного освобождения от белогвардейцев. Возвращаясь из дозора, четверка отважных «неуловимых» подбивает аэроплан. В полевой сумке взятого в плен летчика они обнаруживают секретное донесение, где говорится о существовании оборонительных укреплений вокруг приморского города, который красным еще предстоит взять. Юные герои получают задание добыть карту укреплений и едут в город…<hr class="post-hr"> Релиз группы <hr class="post-hr">Качество: DVDRip / рип с DVD5 "Крупный план"
Формат: MP4
Видео кодек: H.264
Аудио кодек: AAC
Видео: 640x272 AR:2.35 1080 kbps 25 fps
Аудио: 2ch 48 kHz 128 kbps<hr class="post-hr">
<div class="sp-wrap">
<div class="sp-head folded">Logx264</div>
<div class="sp-body">avs [info]: 640x272p 1:1 @ 25/1 fps (cfr)
x264 [info]: using SAR=1/1
x264 [info]: using cpu capabilities: MMX2 SSE2Fast SSSE3 SSE4.2 AVX FMA3 AVX2 LZCNT BMI2
x264 [info]: profile High, level 4.1

x264 [info]: frame I:707 Avg QP:21.94 size: 31895
x264 [info]: frame P:27655 Avg QP:24.92 size: 10786
x264 [info]: frame B:88242 Avg QP:26.78 size: 3501
x264 [info]: consecutive B-frames: 2.2% 2.9% 9.1% 35.1% 16.3% 29.6% 3.6% 1.2%
x264 [info]: mb I I16..4: 1.5% 75.4% 23.0%
x264 [info]: mb P I16..4: 0.4% 10.3% 1.7% P16..4: 33.1% 33.9% 15.7% 2.7% 0.4% skip: 1.9%
x264 [info]: mb B I16..4: 0.0% 1.2% 0.2% B16..8: 31.8% 20.3% 4.2% direct: 7.2% skip:35.1% L0:37.2% L1:38.3% BI:24.4%
x264 [info]: 8x8 transform intra:82.5% inter:59.0%
x264 [info]: direct mvs spatial:96.7% temporal:3.3%
x264 [info]: coded y,uvDC,uvAC intra: 93.6% 81.5% 51.3% inter: 32.6% 24.2% 6.7%
x264 [info]: i16 v,h,dc,p: 23% 24% 5% 48%
x264 [info]: i8 v,h,dc,ddl,ddr,vr,hd,vl,hu: 9% 8% 5% 10% 14% 13% 15% 12% 15%
x264 [info]: i4 v,h,dc,ddl,ddr,vr,hd,vl,hu: 10% 9% 3% 8% 15% 14% 15% 11% 15%
x264 [info]: i8c dc,h,v,p: 34% 27% 21% 19%
x264 [info]: Weighted P-Frames: Y:49.5% UV:30.2%
x264 [info]: ref P L0: 42.9% 14.5% 14.1% 7.4% 5.1% 4.6% 3.6% 2.3% 2.0% 2.2% 1.1% 0.0%
x264 [info]: ref B L0: 80.8% 8.5% 3.6% 2.2% 1.6% 1.4% 1.1% 0.6% 0.3%
x264 [info]: ref B L1: 97.0% 3.0%
x264 [info]: kb/s:1080.20

encoded 116604 frames, 23.90 fps, 1080.21 kb/s
GeneralComplete name : D:\Torrents\Неуловимые мстители.Трилогия.1966-1971.DVDRip.x264.640x\Новые приключения неуловимых.1968.DVDRip.x264.640x.rip by Frost O.S.mp4Format : MPEG-4Format profile : Base MediaCodec ID : isom (isom/avc1)File size : 676 MiBDuration : 1 h 17 minOverall bit rate mode : VariableOverall bit rate : 1 216 kb/sMovie name : Новые приключения неуловимых 1968 DVDRip x264 640x rip by Frost O SDirector : Эдмонд КеосаянActor : Михаил Метёлкин / Василий Васильев / Виктор Косых / Валентина Курдюкова / Армен Джигарханян / Борис Сичкин / Аркадий Толбузин / Владимир Ивашов / Ефим Копелян / Константин Сорокин / Иван Переверзев / Николай Федорцов / Евгений Весник / Сергей Филиппов / Савелий Крамаров / Юрий Мартынов / Галина Рыбак / Светлана Светличная / Валентина Березуцкая / Владимир Белокуров / Виктор Колпаков / Станислав Чекан / Иван Савкин / Леонид Чубаров / Юрий Боголюбов / Иван Жеваго / Людмила Карауш / Зоя Толбузина / Эдуард Абалов (Абалян) / Лев Поляков / Алексей Бахарь / Эммануил Геллер / Валентин Кулик / Ян Френкель / Анатолий Бурдо / Аркадий Арзуманян / Олег Роге / Лев Фричинский / Иван ТурченковContentType : Short FilmEncoded date : UTC 2017-05-17 17:21:11Tagged date : UTC 2017-05-17 17:22:10Writing application : MkvToMp4 version: 0.224 (x64)Cover : YesComment : rip by Frost O.SLongDescription : Крым накануне полного освобождения от белогвардейцев. Возвращаясь из дозора, четверка отважных «неуловимых» подбивает аэроплан. В полевой сумке взятого в плен летчика они обнаруживают секретное донесение, где говорится о существовании оборонительных укреплений вокруг приморского города, который красным еще предстоит взять. Юные герои получают задание добыть карту укреплений и едут в город…

VideoID : 1Format : AVCFormat/Info : Advanced Video CodecFormat profile : [email protected] settings, CABAC : YesFormat settings, ReFrames : 10 framesCodec ID : avc1Codec ID/Info : Advanced Video CodingDuration : 1 h 17 minBit rate : 1 080 kb/sMaximum bit rate : 3 153 kb/sWidth : 640 pixelsHeight : 272 pixelsDisplay aspect ratio : 2.35:1Frame rate mode : ConstantFrame rate : 25.000 FPSColor space : YUVChroma subsampling : 4:2:0Bit depth : 8 bitsScan type : ProgressiveBits/(Pixel*Frame) : 0.248Stream size : 601 MiB (89%)Writing library : x264 core 148 r2744 b97ae06Encoding settings : cabac=1 / ref=10 / deblock=1:-1:-1 / analyse=0x3:0x133 / me=umh / subme=11 / psy=1 / psy_rd=0.90:0.00 / mixed_ref=1 / me_range=48 / chroma_me=1 / trellis=2 / 8x8dct=1 / cqm=0 / deadzone=21,11 / fast_pskip=0 / chroma_qp_offset=-2 / threads=6 / lookahead_threads=1 / sliced_threads=0 / nr=0 / decimate=0 / interlaced=0 / bluray_compat=0 / constrained_intra=0 / bframes=7 / b_pyramid=2 / b_adapt=2 / b_bias=0 / direct=3 / weightb=1 / open_gop=0 / weightp=2 / keyint=250 / keyint_min=25 / scenecut=40 / intra_refresh=0 / rc=2pass / mbtree=0 / bitrate=1080 / ratetol=1.0 / qcomp=0.65 / qpmin=0 / qpmax=69 / qpstep=4 / cplxblur=20.0 / qblur=0.5 / ip_ratio=1.40 / pb_ratio=1.30 / aq=1:1.00Language : EnglishEncoded date : UTC 2017-05-17 17:21:11Tagged date : UTC 2017-05-17 17:21:25Color range : LimitedColor primaries : BT.601 PALTransfer characteristics : BT.470 System B, BT.470 System GMatrix coefficients : BT.601

AudioID : 2Format : AACFormat/Info : Advanced Audio CodecFormat profile : LCCodec ID : 40Duration : 1 h 17 minBit rate mode : VariableBit rate : 128 kb/sMaximum bit rate : 135 kb/sChannel(s) : 2 channelsChannel positions : Front: L RSampling rate : 48.0 kHzFrame rate : 46.875 FPS (1024 spf)Compression mode : LossyStream size : 71.1 MiB (11%)Language : RussianDefault : YesAlternate group : 1Encoded date : UTC 2017-05-17 17:21:23Tagged date : UTC 2017-05-17 17:21:25
</div>
</div>
Корона Российской империи, или Снова неуловимые 2 (части)<hr class="post-hr">
<hr class="post-hr">Год выпуска: 1971
Страна: СССР
Жанр: детский, приключения, боевик,
Продолжительность: первая часть 01:03:42 + вторая часть 01:05:36
Перевод: не требуется
Cубтитры: нет<hr class="post-hr">Режиссер: Эдмонд Кеосаян<hr class="post-hr">В ролях: Михаил Метёлкин, Виктор Косых, Василий Васильев, Валентина Курдюкова, Иван Переверзев, Армен Джигарханян, Владимир Ивашов, Владислав Стржельчик, Аркадий Толбузин, Ефим Копелян, Владимир Белокуров, Ролан Быков, Ян Френкель, Людмила Гурченко, Андрей Файт, Эдмонд Кеосаян, Григорий Шпигель, Нина Агапова<hr class="post-hr">Описание: Кончилась гражданская война. Четвёрка неуловимых мстителей, ставших чекистами, получает новое задание: охранять музейные ценности, в том числе и Большую императорскую корону. А между тем именно ею мечтают короноваться авантюристы, которые ведут в Париже борьбу за престол несуществующей Российской империи…<hr class="post-hr"> Релиз группы <hr class="post-hr">Качество: DVDRip / рип с DVD9 "Крупный план"
Формат: MP4
Видео кодек: H.264
Аудио кодек: AACПервая часть
<div class="post-box" style="border-color: #F86926;">Видео: 640x284 AR:2.25 1080 kbps 25 fps
Аудио: 2ch 48 kHz 128 kbps</div>
Вторая часть
<div class="post-box" style="border-color: #F86926;">Видео: 640x284 AR:2.25 1080 kbps 25 fps
Аудио: 2ch 48 kHz 128 kbps</div>
<hr class="post-hr">
<div class="sp-wrap">
<div class="sp-head folded">Первая часть</div>
<div class="sp-body">
<div class="sp-wrap">
<div class="sp-head folded">Logx264</div>
<div class="sp-body">avs [info]: 640x284p 1:1 @ 25/1 fps (cfr)
x264 [info]: using SAR=1/1
x264 [info]: using cpu capabilities: MMX2 SSE2Fast SSSE3 SSE4.2 AVX FMA3 AVX2 LZCNT BMI2
x264 [info]: profile High, level 4.1

x264 [info]: frame I:491 Avg QP:17.44 size: 30492
x264 [info]: frame P:21058 Avg QP:20.65 size: 11112
x264 [info]: frame B:74001 Avg QP:23.00 size: 3607
x264 [info]: consecutive B-frames: 1.3% 2.1% 9.3% 27.1% 13.9% 42.3% 3.0% 0.6% 0.4%
x264 [info]: mb I I16..4: 2.9% 73.8% 23.3%
x264 [info]: mb P I16..4: 0.7% 10.3% 1.5% P16..4: 32.1% 35.4% 14.8% 2.1% 0.3% skip: 2.8%
x264 [info]: mb B I16..4: 0.0% 1.1% 0.1% B16..8: 31.2% 20.4% 3.9% direct: 6.9% skip:36.3% L0:37.7% L1:40.8% BI:21.5%
x264 [info]: 8x8 transform intra:82.6% inter:58.8%
x264 [info]: direct mvs spatial:97.4% temporal:2.6%
x264 [info]: coded y,uvDC,uvAC intra: 89.9% 84.3% 58.9% inter: 30.5% 25.4% 8.8%
x264 [info]: i16 v,h,dc,p: 41% 17% 8% 34%
x264 [info]: i8 v,h,dc,ddl,ddr,vr,hd,vl,hu: 10% 7% 8% 10% 14% 13% 13% 12% 14%
x264 [info]: i4 v,h,dc,ddl,ddr,vr,hd,vl,hu: 14% 8% 5% 8% 14% 14% 13% 12% 13%
x264 [info]: i8c dc,h,v,p: 35% 27% 21% 17%
x264 [info]: Weighted P-Frames: Y:30.0% UV:17.7%
x264 [info]: ref P L0: 43.6% 12.2% 16.1% 6.5% 5.2% 4.1% 3.6% 2.1% 2.0% 1.8% 2.0% 0.8% 0.0%
x264 [info]: ref B L0: 81.3% 8.4% 3.4% 1.9% 1.4% 1.2% 0.9% 0.7% 0.5% 0.3%
x264 [info]: ref B L1: 96.6% 3.4%
x264 [info]: kb/s:1079.90

encoded 95550 frames, 22.96 fps, 1079.91 kb/s
General
Complete name : D:\Torrents\Неуловимые мстители.Трилогия.1966-1971.DVDRip.x264.640x\Корона Российской империи, или Снова неуловимые.(2 части).1971.DVDRip.x264.640x\Корона Российской империи, или Снова неуловимые.(1 часть).1971.DVDRip.x264.640x.rip by Frost O.S.mp4
Format : MPEG-4
Format profile : Base Media
Codec ID : isom (isom/avc1)
File size : 554 MiB
Duration : 1 h 3 min
Overall bit rate mode : Variable
Overall bit rate : 1 216 kb/s
Movie name : Корона Российской империи, или Снова неуловимые (1 часть) 1971 DVDRip x264 640x rip by Frost O S
Director : Эдмонд Кеосаян
Actor : Михаил Метёлкин / Виктор Косых / Василий Васильев / Валентина Курдюкова / Иван Переверзев / Армен Джигарханян / Владимир Ивашов / Владислав Стржельчик / Аркадий Толбузин / Ефим Копелян / Владимир Белокуров / Ролан Быков / Ян Френкель / Людмила Гурченко / Андрей Файт / Эдмонд Кеосаян / Григорий Шпигель / Нина Агапова
ContentType : Short Film
Encoded date : UTC 2017-05-17 17:10:14
Tagged date : UTC 2017-05-17 17:11:09
Writing application : MkvToMp4 version: 0.224 (x64)
Cover : Yes
Comment : rip by Frost O.S
LongDescription : Кончилась гражданская война. Четвёрка неуловимых мстителей, ставших чекистами, получает новое задание: охранять музейные ценности, в том числе и Большую императорскую корону. А между тем именно ею мечтают короноваться авантюристы, которые ведут в Париже борьбу за престол несуществующей Российской империи…

Video
ID : 1
Format : AVC
Format/Info : Advanced Video Codec
Format profile : [email protected]
Format settings, CABAC : Yes
Format settings, ReFrames : 11 frames
Codec ID : avc1
Codec ID/Info : Advanced Video Coding
Duration : 1 h 3 min
Bit rate : 1 080 kb/s
Maximum bit rate : 2 948 kb/s
Width : 640 pixels
Height : 284 pixels
Display aspect ratio : 2.25:1
Frame rate mode : Constant
Frame rate : 25.000 FPS
Color space : YUV
Chroma subsampling : 4:2:0
Bit depth : 8 bits
Scan type : Progressive
Bits/(Pixel*Frame) : 0.238
Stream size : 492 MiB (89%)
Writing library : x264 core 148 r2744 b97ae06
Encoding settings : cabac=1 / ref=11 / deblock=1:-1:-1 / analyse=0x3:0x133 / me=umh / subme=11 / psy=1 / psy_rd=0.90:0.00 / mixed_ref=1 / me_range=48 / chroma_me=1 / trellis=2 / 8x8dct=1 / cqm=0 / deadzone=21,11 / fast_pskip=0 / chroma_qp_offset=-2 / threads=6 / lookahead_threads=1 / sliced_threads=0 / nr=0 / decimate=0 / interlaced=0 / bluray_compat=0 / constrained_intra=0 / bframes=8 / b_pyramid=2 / b_adapt=2 / b_bias=0 / direct=3 / weightb=1 / open_gop=0 / weightp=2 / keyint=250 / keyint_min=25 / scenecut=40 / intra_refresh=0 / rc=2pass / mbtree=0 / bitrate=1080 / ratetol=1.0 / qcomp=0.70 / qpmin=0 / qpmax=69 / qpstep=4 / cplxblur=20.0 / qblur=0.5 / ip_ratio=1.40 / pb_ratio=1.30 / aq=1:0.70
Language : English
Encoded date : UTC 2017-05-17 17:10:14
Tagged date : UTC 2017-05-17 17:10:31
Color range : Limited
Color primaries : BT.601 PAL
Transfer characteristics : BT.470 System B, BT.470 System G
Matrix coefficients : BT.601

Audio
ID : 2
Format : AAC
Format/Info : Advanced Audio Codec
Format profile : LC
Codec ID : 40
Duration : 1 h 3 min
Bit rate mode : Variable
Bit rate : 128 kb/s
Maximum bit rate : 134 kb/s
Channel(s) : 2 channels
Channel positions : Front: L R
Sampling rate : 48.0 kHz
Frame rate : 46.875 FPS (1024 spf)
Compression mode : Lossy
Stream size : 58.3 MiB (11%)
Language : Russian
Default : Yes
Alternate group : 1
Encoded date : UTC 2017-05-17 17:10:29
Tagged date : UTC 2017-05-17 17:10:31[/pre]
</div>
</div>
<div class="sp-wrap">
<div class="sp-head folded">Logx264</div>
<div class="sp-body">avs [info]: 640x284p 1:1 @ 25/1 fps (cfr)
x264 [info]: using SAR=1/1
x264 [info]: using cpu capabilities: MMX2 SSE2Fast SSSE3 SSE4.2 AVX FMA3 AVX2 LZCNT BMI2
x264 [info]: profile High, level 4.1

x264 [info]: frame I:509 Avg QP:18.38 size: 29951
x264 [info]: frame P:22640 Avg QP:21.66 size: 10789
x264 [info]: frame B:75266 Avg QP:24.02 size: 3614
x264 [info]: consecutive B-frames: 1.4% 2.5% 11.2% 31.1% 14.6% 35.4% 2.7% 0.6% 0.4%
x264 [info]: mb I I16..4: 3.7% 72.6% 23.7%
x264 [info]: mb P I16..4: 0.8% 11.0% 1.6% P16..4: 32.4% 34.5% 13.8% 2.1% 0.3% skip: 3.6%
x264 [info]: mb B I16..4: 0.0% 1.3% 0.1% B16..8: 32.3% 20.7% 3.8% direct: 7.0% skip:34.8% L0:37.5% L1:41.1% BI:21.4%
x264 [info]: 8x8 transform intra:82.5% inter:61.8%
x264 [info]: direct mvs spatial:96.8% temporal:3.2%
x264 [info]: coded y,uvDC,uvAC intra: 89.5% 84.1% 58.9% inter: 30.0% 29.6% 12.1%
x264 [info]: i16 v,h,dc,p: 46% 16% 7% 32%
x264 [info]: i8 v,h,dc,ddl,ddr,vr,hd,vl,hu: 9% 7% 8% 10% 14% 13% 14% 12% 14%
x264 [info]: i4 v,h,dc,ddl,ddr,vr,hd,vl,hu: 15% 7% 5% 8% 14% 14% 13% 11% 13%
x264 [info]: i8c dc,h,v,p: 36% 26% 20% 17%
x264 [info]: Weighted P-Frames: Y:29.5% UV:20.8%
x264 [info]: ref P L0: 46.4% 12.6% 15.6% 6.2% 5.0% 4.0% 3.5% 2.1% 2.0% 2.1% 0.7% 0.0%
x264 [info]: ref B L0: 83.0% 7.7% 3.2% 1.9% 1.4% 1.2% 0.9% 0.5% 0.3%
x264 [info]: ref B L1: 97.0% 3.0%
x264 [info]: kb/s:1080.24

encoded 98415 frames, 23.89 fps, 1080.24 kb/s
General
Complete name : D:\Torrents\Неуловимые мстители.Трилогия.1966-1971.DVDRip.x264.640x\Корона Российской империи, или Снова неуловимые.(2 части).1971.DVDRip.x264.640x\Корона Российской империи, или Снова неуловимые.(2 часть).1971.DVDRip.x264.640x.rip by Frost O.S.mp4
Format : MPEG-4
Format profile : Base Media
Codec ID : isom (isom/avc1)
File size : 571 MiB
Duration : 1 h 5 min
Overall bit rate mode : Variable
Overall bit rate : 1 216 kb/s
Movie name : Корона Российской империи, или Снова неуловимые (2 часть) 1971 DVDRip x264 640x rip by Frost O S
Director : Эдмонд Кеосаян
Actor : Михаил Метёлкин / Виктор Косых / Василий Васильев / Валентина Курдюкова / Иван Переверзев / Армен Джигарханян / Владимир Ивашов / Владислав Стржельчик / Аркадий Толбузин / Ефим Копелян / Владимир Белокуров / Ролан Быков / Ян Френкель / Людмила Гурченко / Андрей Файт / Эдмонд Кеосаян / Григорий Шпигель / Нина Агапова
ContentType : Short Film
Encoded date : UTC 2017-05-17 17:17:22
Tagged date : UTC 2017-05-17 17:18:16
Writing application : MkvToMp4 version: 0.224 (x64)
Cover : Yes
Comment : rip by Frost O.S
LongDescription : Кончилась гражданская война. Четвёрка неуловимых мстителей, ставших чекистами, получает новое задание: охранять музейные ценности, в том числе и Большую императорскую корону. А между тем именно ею мечтают короноваться авантюристы, которые ведут в Париже борьбу за престол несуществующей Российской империи…

Video
ID : 1
Format : AVC
Format/Info : Advanced Video Codec
Format profile : [email protected]
Format settings, CABAC : Yes
Format settings, ReFrames : 10 frames
Codec ID : avc1
Codec ID/Info : Advanced Video Coding
Duration : 1 h 5 min
Bit rate : 1 080 kb/s
Maximum bit rate : 3 715 kb/s
Width : 640 pixels
Height : 284 pixels
Display aspect ratio : 2.25:1
Frame rate mode : Constant
Frame rate : 25.000 FPS
Color space : YUV
Chroma subsampling : 4:2:0
Bit depth : 8 bits
Scan type : Progressive
Bits/(Pixel*Frame) : 0.238
Stream size : 507 MiB (89%)
Writing library : x264 core 148 r2744 b97ae06
Encoding settings : cabac=1 / ref=10 / deblock=1:-1:-1 / analyse=0x3:0x133 / me=umh / subme=11 / psy=1 / psy_rd=0.90:0.00 / mixed_ref=1 / me_range=48 / chroma_me=1 / trellis=2 / 8x8dct=1 / cqm=0 / deadzone=21,11 / fast_pskip=0 / chroma_qp_offset=-2 / threads=6 / lookahead_threads=1 / sliced_threads=0 / nr=0 / decimate=0 / interlaced=0 / bluray_compat=0 / constrained_intra=0 / bframes=8 / b_pyramid=2 / b_adapt=2 / b_bias=0 / direct=3 / weightb=1 / open_gop=0 / weightp=2 / keyint=250 / keyint_min=25 / scenecut=40 / intra_refresh=0 / rc=2pass / mbtree=0 / bitrate=1080 / ratetol=1.0 / qcomp=0.70 / qpmin=0 / qpmax=69 / qpstep=4 / cplxblur=20.0 / qblur=0.5 / ip_ratio=1.40 / pb_ratio=1.30 / aq=1:0.80
Language : English
Encoded date : UTC 2017-05-17 17:17:22
Tagged date : UTC 2017-05-17 17:17:31
Color range : Limited
Color primaries : BT.601 PAL
Transfer characteristics : BT.470 System B, BT.470 System G
Matrix coefficients : BT.601

Audio
ID : 2
Format : AAC
Format/Info : Advanced Audio Codec
Format profile : LC
Codec ID : 40
Duration : 1 h 5 min
Bit rate mode : Variable
Bit rate : 128 kb/s
Maximum bit rate : 133 kb/s
Channel(s) : 2 channels
Channel positions : Front: L R
Sampling rate : 48.0 kHz
Frame rate : 46.875 FPS (1024 spf)
Compression mode : Lossy
Stream size : 60.0 MiB (11%)
Language : Russian
Default : Yes
Alternate group : 1
Encoded date : UTC 2017-05-17 17:17:30
Tagged date : UTC 2017-05-17 17:17:31[/pre]
</div>
</div>
</div>
</div>
</div><!--/post_body-->

Трекер:  [ 17-Май-2017 19:30 ]

  

Скачать .torrent

Размер .torrent файла 13 KB


Размер: 2.39 GB
Хэш (hash) релиза: 5944300828939b8b7813134dd9d434e40c9e8d67

Еще никто не оставлял запись к записи скачать торрент [VIDEO] Неуловимые мстители: Трилогия . Будь первым!

!Обратная связь