Philippine Drama | Electrical Installation Work - Level 1 by Peter Roberts | Hugo Becker

Скачать через торрент [VIDEO] Сказка о потерянном времени бесплатно русская версия torrent активатор

Статистика раздачи
Размер:  658 MB   |    Зарегистрирован:  1 год 2 месяца   |    .torrent скачан:  47 раз   |   
Раздают:  1  
   
загрузка...
 
Автор Сообщение

Galfimbul

avatar Galfimbul


Сказка о потерянном времени<hr class="post-hr">
<hr class="post-hr">Год выпуска: 1964
Страна: СССР
Жанр: сказка, экранизация, приключения
Продолжительность: 01:15:40
Перевод: не требуется
Cубтитры: нет<hr class="post-hr">Режиссер: Александр Птушко<hr class="post-hr">В ролях: Олег Анофриев, Иван Рыжов, Гриша Плоткин, Сергей Мартинсон, Женя Соколов, Георгий Вицин, Сережа Карпоносов, Ирина Мурзаева, Зина Кукушкина, Валентина Телегина, Таня Донценко, Людмила Шагалова, Вера Волкова, Рина Зелёная и другие .<hr class="post-hr">Описание: Четверо злых волшебников решили вернуть себе молодость. Но для этого им было необходимо найти людей, бесцельно растрачивающих свое время. Удача улыбнулась им в лице четверых безалаберных школьников. Из-за колдовства школьники постарели, а волшебники превратились в детей. Но у превращенных остался шанс — до заката солнца они должны были найти избушку волшебников и перевести стрелки волшебных часов назад…<hr class="post-hr"> Релиз группы <hr class="post-hr">Качество: DVDRip / рип с DVD9 "Совместный релиз Крупного плана и RUSCICO"
Формат: MP4
Видео кодек: H.264
Аудио кодек: AAC
Видео: 472x360 AR:1.31 1080 kbps 25 fps
Аудио: 2ch 48 kHz 128 kbps<hr class="post-hr">
avs [info]: 472x360p 1:1 @ 25/1 fps (cfr)
x264 [info]: using SAR=1/1
x264 [info]: using cpu capabilities: MMX2 SSE2Fast SSSE3 SSE4.2 AVX FMA3 AVX2 LZCNT BMI2
x264 [info]: profile High, level 4.1

x264 [info]: frame I:658 Avg QP:22.66 size: 34073
x264 [info]: frame P:23267 Avg QP:25.77 size: 11753
x264 [info]: frame B:89579 Avg QP:27.73 size: 3539
x264 [info]: consecutive B-frames: 0.8% 1.0% 4.9% 27.3% 18.3% 39.5% 4.4% 2.2% 1.6%
x264 [info]: mb I I16..4: 0.8% 74.3% 24.9%
x264 [info]: mb P I16..4: 0.1% 10.4% 2.0% P16..4: 31.9% 34.5% 16.9% 3.0% 0.3% skip: 0.9%
x264 [info]: mb B I16..4: 0.0% 1.1% 0.2% B16..8: 32.6% 20.6% 4.7% direct: 7.5% skip:33.3% L0:37.9% L1:41.7% BI:20.3%
x264 [info]: 8x8 transform intra:81.7% inter:56.1%
x264 [info]: direct mvs spatial:96.7% temporal:3.3%
x264 [info]: coded y,uvDC,uvAC intra: 97.2% 67.9% 28.9% inter: 32.6% 16.1% 2.7%
x264 [info]: i16 v,h,dc,p: 27% 39% 7% 27%
x264 [info]: i8 v,h,dc,ddl,ddr,vr,hd,vl,hu: 10% 10% 6% 10% 14% 12% 14% 11% 13%
x264 [info]: i4 v,h,dc,ddl,ddr,vr,hd,vl,hu: 11% 11% 3% 9% 14% 14% 14% 12% 13%
x264 [info]: i8c dc,h,v,p: 32% 29% 20% 18%
x264 [info]: Weighted P-Frames: Y:56.3% UV:26.0%
x264 [info]: ref P L0: 39.1% 14.7% 14.4% 8.4% 5.4% 5.1% 4.0% 2.7% 2.3% 2.5% 1.3% 0.0%
x264 [info]: ref B L0: 79.4% 9.0% 3.7% 2.3% 1.7% 1.6% 1.2% 0.7% 0.4%
x264 [info]: ref B L1: 96.9% 3.1%
x264 [info]: kb/s:1079.99

encoded 113504 frames, 23.03 fps, 1079.99 kb/s
GeneralComplete name : D:\Torrents\Сказка о потерянном времени.1964.DVDRip.x264.640x.rip by Frost O.S.mp4Format : MPEG-4Format profile : Base MediaCodec ID : isom (isom/avc1)File size : 658 MiBDuration : 1 h 15 minOverall bit rate mode : VariableOverall bit rate : 1 216 kb/sMovie name : Сказка о потерянном времени 1964 DVDRip x264 640x rip by Frost O SContentType : Short FilmEncoded date : UTC 2017-05-16 15:24:25Tagged date : UTC 2017-05-16 15:25:46Writing application : MkvToMp4 version: 0.224 (x64)Cover : YesComment : rip by Frost O.S

VideoID : 1Format : AVCFormat/Info : Advanced Video CodecFormat profile : [email protected] settings, CABAC : YesFormat settings, ReFrames : 10 framesCodec ID : avc1Codec ID/Info : Advanced Video CodingDuration : 1 h 15 minBit rate : 1 080 kb/sMaximum bit rate : 2 846 kb/sWidth : 472 pixelsHeight : 360 pixelsDisplay aspect ratio : 4:3Frame rate mode : ConstantFrame rate : 25.000 FPSColor space : YUVChroma subsampling : 4:2:0Bit depth : 8 bitsScan type : ProgressiveBits/(Pixel*Frame) : 0.254Stream size : 585 MiB (89%)Writing library : x264 core 148 r2744 b97ae06Encoding settings : cabac=1 / ref=10 / deblock=1:-1:-1 / analyse=0x3:0x133 / me=umh / subme=11 / psy=1 / psy_rd=0.90:0.00 / mixed_ref=1 / me_range=48 / chroma_me=1 / trellis=2 / 8x8dct=1 / cqm=0 / deadzone=21,11 / fast_pskip=0 / chroma_qp_offset=-2 / threads=6 / lookahead_threads=1 / sliced_threads=0 / nr=0 / decimate=0 / interlaced=0 / bluray_compat=0 / constrained_intra=0 / bframes=8 / b_pyramid=2 / b_adapt=2 / b_bias=0 / direct=3 / weightb=1 / open_gop=0 / weightp=2 / keyint=250 / keyint_min=25 / scenecut=40 / intra_refresh=0 / rc=2pass / mbtree=0 / bitrate=1080 / ratetol=1.0 / qcomp=0.65 / qpmin=0 / qpmax=69 / qpstep=4 / cplxblur=20.0 / qblur=0.5 / ip_ratio=1.40 / pb_ratio=1.30 / aq=1:1.00Language : EnglishEncoded date : UTC 2017-05-16 15:24:25Tagged date : UTC 2017-05-16 15:24:52Color range : LimitedColor primaries : BT.601 PALTransfer characteristics : BT.470 System B, BT.470 System GMatrix coefficients : BT.601

AudioID : 2Format : AACFormat/Info : Advanced Audio CodecFormat profile : LCCodec ID : 40Duration : 1 h 15 minBit rate mode : VariableBit rate : 128 kb/sMaximum bit rate : 132 kb/sChannel(s) : 2 channelsChannel positions : Front: L RSampling rate : 48.0 kHzFrame rate : 46.875 FPS (1024 spf)Compression mode : LossyStream size : 69.3 MiB (11%)Language : RussianDefault : YesAlternate group : 1Encoded date : UTC 2017-05-16 15:24:50Tagged date : UTC 2017-05-16 15:24:52
</div><!--/post_body-->

Трекер:  [ 16-Май-2017 17:30 ]

  

Скачать .torrent

Размер .torrent файла 13 KB


Размер: 658 MB
Хэш (hash) релиза: f9c440b0022da88833ff4ac1be7b9ea4b0c8d727

Еще никто не оставлял запись к записи скачать торрент [VIDEO] Сказка о потерянном времени . Будь первым!

!Обратная связь