Télécharger Jack et la mécanique du cœur | Victor Mature | Is the Man Who Is Tall Happy? (2013)

Скачать через торрент [VIDEO] Каменный цветок бесплатно русская версия torrent активатор

Статистика раздачи
Размер:  726 MB   |    Зарегистрирован:  1 год 2 месяца   |    .torrent скачан:  40 раз   |   
Раздают:  1  
   
загрузка...
 
Автор Сообщение

Galfimbul

avatar Galfimbul


Каменный цветок<hr class="post-hr">
<hr class="post-hr">Год выпуска: 1946
Страна: СССР
Жанр: сказка
Продолжительность: 01:23:30
Перевод: не требуется
Cубтитры: нет<hr class="post-hr">Режиссер: Александр Птушко<hr class="post-hr">В ролях: Михаил Дружников, Михаил Трояновский, Тамара Макарова, Екатерина Деревщикова, Михаил Яншин, Алексей Кельберер, Валентина Кравченко, Лидия Дейкун, Н. Темяков, А. Петухова, Н. Орлов и другие .<hr class="post-hr">Описание: Много хороших мастеров на Урале, какие только диковинные вещицы не вырезают они из камня. Но лучше всех Данила-мастер. Не была отбоя от заказчиков у Данилы, но запал ему в душу цветок каменный.

Люди сказывали, кто увидит хоть раз этот цветок у Хозяйки Медной горы, тот навсегда покой потеряет, настолько хороша эта работа. И решил Данила отправиться в подземное царство и своими глазами увидеть это чудо невиданное. А увидев, позабыл и про белый свет, и про милую невесту…<hr class="post-hr"> Релиз группы <hr class="post-hr">Качество: DVDRip / рип с DVD5 (сжатый) "Ruscico"
Формат: MP4
Видео кодек: H.264
Аудио кодек: AAC
Видео: 480x360 AR:1.33 1080 kbps 25 fps
Аудио: 2ch 48 kHz 128 kbps<hr class="post-hr">
avs [info]: 480x360p 1:1 @ 25/1 fps (cfr)
x264 [info]: using SAR=1/1
x264 [info]: using cpu capabilities: MMX2 SSE2Fast SSSE3 SSE4.2 AVX FMA3 AVX2 LZCNT BMI2
x264 [info]: profile High, level 4.1

x264 [info]: frame I:625 Avg QP:17.01 size: 36616
x264 [info]: frame P:28721 Avg QP:20.17 size: 11755
x264 [info]: frame B:95928 Avg QP:22.56 size: 3294
x264 [info]: consecutive B-frames: 1.6% 2.2% 7.0% 39.2% 20.4% 18.6% 5.5% 3.7% 1.3% 0.5%
x264 [info]: mb I I16..4: 1.5% 67.9% 30.6%
x264 [info]: mb P I16..4: 0.2% 5.2% 1.3% P16..4: 33.0% 35.5% 18.7% 3.9% 0.7% skip: 1.6%
x264 [info]: mb B I16..4: 0.0% 0.5% 0.1% B16..8: 30.1% 18.8% 3.4% direct: 9.3% skip:37.9% L0:36.8% L1:35.0% BI:28.2%
x264 [info]: 8x8 transform intra:75.6% inter:49.9%
x264 [info]: direct mvs spatial:96.4% temporal:3.6%
x264 [info]: coded y,uvDC,uvAC intra: 92.4% 81.7% 56.6% inter: 32.2% 21.7% 6.2%
x264 [info]: i16 v,h,dc,p: 42% 22% 8% 28%
x264 [info]: i8 v,h,dc,ddl,ddr,vr,hd,vl,hu: 14% 8% 8% 9% 12% 13% 12% 12% 12%
x264 [info]: i4 v,h,dc,ddl,ddr,vr,hd,vl,hu: 15% 8% 6% 8% 13% 14% 12% 12% 13%
x264 [info]: i8c dc,h,v,p: 36% 24% 23% 17%
x264 [info]: Weighted P-Frames: Y:49.8% UV:27.6%
x264 [info]: ref P L0: 42.9% 14.0% 13.8% 8.0% 5.6% 5.0% 4.1% 2.6% 2.5% 1.5% 0.1%
x264 [info]: ref B L0: 82.1% 8.5% 3.4% 2.0% 1.4% 1.3% 0.8% 0.4%
x264 [info]: ref B L1: 97.4% 2.6%
x264 [info]: kb/s:1079.95

encoded 125274 frames, 27.72 fps, 1079.95 kb/s
GeneralComplete name : D:\Torrents\Каменный цветок.1946.DVDRip.x264.640x.rip by Frost O.S.mp4Format : MPEG-4Format profile : Base MediaCodec ID : isom (isom/avc1)File size : 726 MiBDuration : 1 h 23 minOverall bit rate mode : VariableOverall bit rate : 1 216 kb/sMovie name : Каменный цветок 1946 DVDRip x264 640x rip by Frost O SContentType : Short FilmEncoded date : UTC 2017-05-16 13:08:46Tagged date : UTC 2017-05-16 13:09:46Writing application : MkvToMp4 version: 0.224 (x64)Cover : YesComment : rip by Frost O.S

VideoID : 1Format : AVCFormat/Info : Advanced Video CodecFormat profile : [email protected] settings, CABAC : YesFormat settings, ReFrames : 9 framesCodec ID : avc1Codec ID/Info : Advanced Video CodingDuration : 1 h 23 minBit rate : 1 080 kb/sMaximum bit rate : 3 507 kb/sWidth : 480 pixelsHeight : 360 pixelsDisplay aspect ratio : 4:3Frame rate mode : ConstantFrame rate : 25.000 FPSColor space : YUVChroma subsampling : 4:2:0Bit depth : 8 bitsScan type : ProgressiveBits/(Pixel*Frame) : 0.250Stream size : 645 MiB (89%)Writing library : x264 core 148 r2744 b97ae06Encoding settings : cabac=1 / ref=9 / deblock=1:-1:-1 / analyse=0x3:0x133 / me=umh / subme=11 / psy=1 / psy_rd=0.90:0.00 / mixed_ref=1 / me_range=48 / chroma_me=1 / trellis=2 / 8x8dct=1 / cqm=0 / deadzone=21,11 / fast_pskip=0 / chroma_qp_offset=-2 / threads=6 / lookahead_threads=1 / sliced_threads=0 / nr=0 / decimate=0 / interlaced=0 / bluray_compat=0 / constrained_intra=0 / bframes=9 / b_pyramid=2 / b_adapt=2 / b_bias=0 / direct=3 / weightb=1 / open_gop=0 / weightp=2 / keyint=250 / keyint_min=25 / scenecut=40 / intra_refresh=0 / rc=2pass / mbtree=0 / bitrate=1080 / ratetol=1.0 / qcomp=0.70 / qpmin=0 / qpmax=69 / qpstep=4 / cplxblur=20.0 / qblur=0.5 / ip_ratio=1.40 / pb_ratio=1.30 / aq=1:0.90Language : EnglishEncoded date : UTC 2017-05-16 13:08:46Tagged date : UTC 2017-05-16 13:09:08Color range : LimitedColor primaries : BT.601 PALTransfer characteristics : BT.470 System B, BT.470 System GMatrix coefficients : BT.601

AudioID : 2Format : AACFormat/Info : Advanced Audio CodecFormat profile : LCCodec ID : 40Duration : 1 h 23 minBit rate mode : VariableBit rate : 128 kb/sMaximum bit rate : 135 kb/sChannel(s) : 2 channelsChannel positions : Front: L RSampling rate : 48.0 kHzFrame rate : 46.875 FPS (1024 spf)Compression mode : LossyStream size : 76.5 MiB (11%)Language : RussianDefault : YesAlternate group : 1Encoded date : UTC 2017-05-16 13:08:59Tagged date : UTC 2017-05-16 13:09:08
</div><!--/post_body-->

Трекер:  [ 16-Май-2017 16:30 ]

  

Скачать .torrent

Размер .torrent файла 14 KB


Размер: 726 MB
Хэш (hash) релиза: 3b6375c9449b5f52f99cdfc26a5710950badc2c4

Еще никто не оставлял запись к записи скачать торрент [VIDEO] Каменный цветок . Будь первым!

!Обратная связь