Policier | Fall count anywhere | Tekken: Blood Vengeance

Скачать через торрент [VIDEO] Илья Муромец бесплатно русская версия torrent активатор

Статистика раздачи
Размер:  755 MB   |    Зарегистрирован:  1 год 2 месяца   |    .torrent скачан:  39 раз   |   
Раздают:  1  
   
загрузка...
 
Автор Сообщение

Galfimbul

avatar Galfimbul


Илья Муромец<hr class="post-hr">
<hr class="post-hr">Год выпуска: 1956
Страна: СССР
Жанр: сказка
Продолжительность: 01:26:46
Перевод: не требуется
Cубтитры: нет<hr class="post-hr">Режиссеры: Александр Птушко, Дамир Вятич-Бережных<hr class="post-hr">В ролях: Борис Андреев, Шукур Бурханов, Андрей Абрикосов, Наталья Медведева, Нинель Мышкова, Сергей Мартинсон, Георгий Дёмин, Александр Шворин, Владимир Соловьев, Михаил Пуговкин, Сергей Столяров и другие .<hr class="post-hr">Описание: Защитник Руси, богатырь Илья Муромец по навету бояр попадает в княжеское подземелье. Но когда на родную землю вновь приходит беда, вынужден князь идти на поклон Муромцу и друзьям его — Алеше Поповичу и Добрыне Никитичу…<hr class="post-hr"> Релиз группы <hr class="post-hr">Качество: DVDRip / рип с DVD5 "Крупный План"
Формат: MP4
Видео кодек: H.264
Аудио кодек: AAC
Видео: 640x272 AR:2.35 1080 kbps 25 fps
Аудио: 2ch 48 kHz 128 kbps<hr class="post-hr">
avs [info]: 640x272p 1:1 @ 25/1 fps (cfr)
x264 [info]: using SAR=1/1
x264 [info]: using cpu capabilities: MMX2 SSE2Fast SSSE3 SSE4.2 AVX FMA3 AVX2 LZCNT BMI2
x264 [info]: profile High, level 4.1

x264 [info]: frame I:797 Avg QP:21.55 size: 35586
x264 [info]: frame P:27933 Avg QP:24.36 size: 11101
x264 [info]: frame B:101443 Avg QP:26.56 size: 3595
x264 [info]: consecutive B-frames: 1.0% 1.1% 6.9% 34.1% 18.2% 28.4% 5.7% 2.5% 1.4% 0.8%
x264 [info]: mb I I16..4: 1.2% 78.6% 20.2%
x264 [info]: mb P I16..4: 0.1% 5.9% 1.0% P16..4: 34.4% 35.1% 18.6% 3.3% 0.5% skip: 1.3%
x264 [info]: mb B I16..4: 0.0% 0.8% 0.1% B16..8: 33.1% 21.1% 4.3% direct: 8.4% skip:32.2% L0:36.8% L1:35.0% BI:28.2%
x264 [info]: 8x8 transform intra:83.5% inter:57.7%
x264 [info]: direct mvs spatial:97.2% temporal:2.8%
x264 [info]: coded y,uvDC,uvAC intra: 96.6% 91.3% 72.4% inter: 33.6% 28.6% 8.8%
x264 [info]: i16 v,h,dc,p: 25% 25% 10% 41%
x264 [info]: i8 v,h,dc,ddl,ddr,vr,hd,vl,hu: 9% 8% 6% 9% 15% 13% 14% 12% 15%
x264 [info]: i4 v,h,dc,ddl,ddr,vr,hd,vl,hu: 9% 7% 3% 9% 15% 14% 15% 12% 15%
x264 [info]: i8c dc,h,v,p: 40% 22% 18% 20%
x264 [info]: Weighted P-Frames: Y:56.0% UV:38.5%
x264 [info]: ref P L0: 41.4% 14.7% 13.2% 7.8% 5.4% 4.9% 3.9% 2.6% 2.3% 2.5% 1.3% 0.0%
x264 [info]: ref B L0: 76.3% 9.6% 4.5% 2.8% 2.1% 1.9% 1.5% 0.8% 0.4%
x264 [info]: ref B L1: 95.8% 4.2%
x264 [info]: kb/s:1080.23

encoded 130173 frames, 24.30 fps, 1080.24 kb/s
GeneralComplete name : D:\Torrents\Илья Муромец.1956.DVDRip.x264.640x.rip by Frost O.S.mp4Format : MPEG-4Format profile : Base MediaCodec ID : isom (isom/avc1)File size : 755 MiBDuration : 1 h 26 minOverall bit rate mode : VariableOverall bit rate : 1 216 kb/sMovie name : Илья Муромец 1956 DVDRip x264 640x rip by Frost O SContentType : Short FilmEncoded date : UTC 2017-05-16 11:10:28Tagged date : UTC 2017-05-16 11:11:36Writing application : MkvToMp4 version: 0.224 (x64)Cover : YesComment : rip by Frost O.S

VideoID : 1Format : AVCFormat/Info : Advanced Video CodecFormat profile : [email protected] settings, CABAC : YesFormat settings, ReFrames : 10 framesCodec ID : avc1Codec ID/Info : Advanced Video CodingDuration : 1 h 26 minBit rate : 1 080 kb/sMaximum bit rate : 3 431 kb/sWidth : 640 pixelsHeight : 272 pixelsDisplay aspect ratio : 2.35:1Frame rate mode : ConstantFrame rate : 25.000 FPSColor space : YUVChroma subsampling : 4:2:0Bit depth : 8 bitsScan type : ProgressiveBits/(Pixel*Frame) : 0.248Stream size : 671 MiB (89%)Writing library : x264 core 148 r2744 b97ae06Encoding settings : cabac=1 / ref=10 / deblock=1:-1:-1 / analyse=0x3:0x133 / me=umh / subme=11 / psy=1 / psy_rd=0.90:0.00 / mixed_ref=1 / me_range=48 / chroma_me=1 / trellis=2 / 8x8dct=1 / cqm=0 / deadzone=21,11 / fast_pskip=0 / chroma_qp_offset=-2 / threads=6 / lookahead_threads=1 / sliced_threads=0 / nr=0 / decimate=0 / interlaced=0 / bluray_compat=0 / constrained_intra=0 / bframes=9 / b_pyramid=2 / b_adapt=2 / b_bias=0 / direct=3 / weightb=1 / open_gop=0 / weightp=2 / keyint=250 / keyint_min=25 / scenecut=40 / intra_refresh=0 / rc=2pass / mbtree=0 / bitrate=1080 / ratetol=1.0 / qcomp=0.65 / qpmin=0 / qpmax=69 / qpstep=4 / cplxblur=20.0 / qblur=0.5 / ip_ratio=1.40 / pb_ratio=1.30 / aq=1:0.90Language : EnglishEncoded date : UTC 2017-05-16 11:10:28Tagged date : UTC 2017-05-16 11:10:58Color range : LimitedColor primaries : BT.601 PALTransfer characteristics : BT.470 System B, BT.470 System GMatrix coefficients : BT.601

AudioID : 2Format : AACFormat/Info : Advanced Audio CodecFormat profile : LCCodec ID : 40Duration : 1 h 26 minBit rate mode : VariableBit rate : 128 kb/sMaximum bit rate : 133 kb/sChannel(s) : 2 channelsChannel positions : Front: L RSampling rate : 48.0 kHzFrame rate : 46.875 FPS (1024 spf)Compression mode : LossyStream size : 79.4 MiB (11%)Language : RussianDefault : YesAlternate group : 1Encoded date : UTC 2017-05-16 11:10:49Tagged date : UTC 2017-05-16 11:10:58
</div><!--/post_body-->

Трекер:  [ 16-Май-2017 13:30 ]

  

Скачать .torrent

Размер .torrent файла 15 KB


Размер: 755 MB
Хэш (hash) релиза: bd5c9a692a7dcf8c82c5dd2556857c2bb181fceb

Еще никто не оставлял запись к записи скачать торрент [VIDEO] Илья Муромец . Будь первым!

!Обратная связь