The Crucifixion
Warcraft2016720pHDTCx264AC3

Скачать через торрент [VIDEO] Алые паруса бесплатно русская версия torrent активатор

Статистика раздачи
Размер:  724 MB   |    Зарегистрирован:  11 месяцев   |    .torrent скачан:  39 раз   |   
Раздают:  1  
   
загрузка...
 
Автор Сообщение

Galfimbul

avatar Galfimbul


Алые паруса<hr class="post-hr">
<hr class="post-hr">Год выпуска: 1961
Страна: СССР
Жанр: драма, мелодрама
Продолжительность: 01:23:13
Перевод: не требуется
Cубтитры: нет<hr class="post-hr">Режиссер: Александр Птушко<hr class="post-hr">В ролях: Анастасия Вертинская, Василий Лановой, Лена Черемшанова, Саша Лупенко, Иван Переверзев, Сергей Мартинсон, Николай Волков-старший, Сергей Ромоданов, Олег Анофриев, Павел Волков, А. Хвыля и другие .<hr class="post-hr">Описание: В небольшом рыбацком поселке отшельниками жили Лонгрен с дочерью. Бывалый моряк оставил службу и один растил маленькую Ассоль.

Соседи обходили стороной дом Лонгрена, считая его нелюдимым и злым человеком. Между тем отец с дочерью просто не были похожи на окружающих, но понять это смог лишь один человек.

Им оказался отважный моряк Грей, осуществивший заветную мечту Ассоль: с детских лет она ждала человека, который приедет за ней на корабле под алыми парусами…<hr class="post-hr"> Релиз группы <hr class="post-hr">Качество: DVDRip / рип с DVD9 "Ruscico"
Формат: MP4
Видео кодек: H.264
Аудио кодек: AAC
Видео: 474x360 AR:1.32 1080 kbps 23.976 fps
Аудио: 2ch 48 kHz 128 kbps<hr class="post-hr">
avs [info]: 474x360p 1:1 @ 24000/1001 fps (cfr)
x264 [info]: using SAR=1/1
x264 [info]: using cpu capabilities: MMX2 SSE2Fast SSSE3 SSE4.2 AVX FMA3 AVX2 LZCNT BMI2
x264 [info]: profile High, level 4.1

x264 [info]: frame I:633 Avg QP:17.95 size: 35392
x264 [info]: frame P:27441 Avg QP:20.80 size: 11800
x264 [info]: frame B:91636 Avg QP:23.32 size: 3578
x264 [info]: consecutive B-frames: 2.0% 1.5% 6.9% 33.7% 26.4% 23.0% 4.7% 2.0%
x264 [info]: mb I I16..4: 1.2% 73.5% 25.3%
x264 [info]: mb P I16..4: 0.1% 7.7% 1.3% P16..4: 30.3% 35.8% 19.6% 3.2% 0.5% skip: 1.4%
x264 [info]: mb B I16..4: 0.0% 0.8% 0.2% B16..8: 30.6% 19.7% 4.2% direct: 9.1% skip:35.4% L0:37.3% L1:36.5% BI:26.2%
x264 [info]: 8x8 transform intra:81.8% inter:53.4%
x264 [info]: direct mvs spatial:97.5% temporal:2.5%
x264 [info]: coded y,uvDC,uvAC intra: 96.2% 79.2% 46.7% inter: 32.6% 19.8% 5.3%
x264 [info]: i16 v,h,dc,p: 37% 13% 5% 45%
x264 [info]: i8 v,h,dc,ddl,ddr,vr,hd,vl,hu: 15% 11% 8% 8% 12% 11% 12% 10% 14%
x264 [info]: i4 v,h,dc,ddl,ddr,vr,hd,vl,hu: 19% 9% 3% 8% 13% 14% 12% 10% 12%
x264 [info]: i8c dc,h,v,p: 30% 30% 23% 17%
x264 [info]: Weighted P-Frames: Y:37.2% UV:13.4%
x264 [info]: ref P L0: 41.3% 13.3% 14.2% 7.5% 5.9% 4.8% 4.2% 2.6% 2.5% 2.5% 1.0% 0.1%
x264 [info]: ref B L0: 82.4% 7.9% 3.3% 1.9% 1.4% 1.2% 0.9% 0.6% 0.4%
x264 [info]: ref B L1: 97.8% 2.2%
x264 [info]: kb/s:1080.14

encoded 119710 frames, 24.19 fps, 1080.14 kb/s
GeneralComplete name : D:\Torrents\Алые паруса.1961.DVDRip.x264.640x.rip by Frost O.S.mp4Format : MPEG-4Format profile : Base MediaCodec ID : isom (isom/avc1)File size : 724 MiBDuration : 1 h 23 minOverall bit rate mode : VariableOverall bit rate : 1 216 kb/sMovie name : Алые паруса 1961 DVDRip x264 640x rip by Frost O SContentType : Short FilmEncoded date : UTC 2017-05-16 08:40:44Tagged date : UTC 2017-05-16 08:41:59Writing application : MkvToMp4 version: 0.224 (x64)Cover : YesComment : rip by Frost O.S

VideoID : 1Format : AVCFormat/Info : Advanced Video CodecFormat profile : [email protected] settings, CABAC : YesFormat settings, ReFrames : 10 framesCodec ID : avc1Codec ID/Info : Advanced Video CodingDuration : 1 h 23 minBit rate : 1 080 kb/sMaximum bit rate : 4 089 kb/sWidth : 474 pixelsHeight : 360 pixelsDisplay aspect ratio : 4:3Frame rate mode : ConstantFrame rate : 23.976 (24000/1001) FPSColor space : YUVChroma subsampling : 4:2:0Bit depth : 8 bitsScan type : ProgressiveBits/(Pixel*Frame) : 0.264Stream size : 643 MiB (89%)Writing library : x264 core 148 r2744 b97ae06Encoding settings : cabac=1 / ref=10 / deblock=1:-1:-1 / analyse=0x3:0x133 / me=umh / subme=11 / psy=1 / psy_rd=0.95:0.00 / mixed_ref=1 / me_range=48 / chroma_me=1 / trellis=2 / 8x8dct=1 / cqm=0 / deadzone=21,11 / fast_pskip=0 / chroma_qp_offset=-2 / threads=6 / lookahead_threads=1 / sliced_threads=0 / nr=0 / decimate=0 / interlaced=0 / bluray_compat=0 / constrained_intra=0 / bframes=7 / b_pyramid=2 / b_adapt=2 / b_bias=0 / direct=3 / weightb=1 / open_gop=0 / weightp=2 / keyint=250 / keyint_min=23 / scenecut=40 / intra_refresh=0 / rc=2pass / mbtree=0 / bitrate=1080 / ratetol=1.0 / qcomp=0.70 / qpmin=0 / qpmax=69 / qpstep=4 / cplxblur=20.0 / qblur=0.5 / ip_ratio=1.40 / pb_ratio=1.30 / aq=1:0.90Language : EnglishEncoded date : UTC 2017-05-16 08:40:44Tagged date : UTC 2017-05-16 08:41:19Color range : LimitedColor primaries : BT.601 PALTransfer characteristics : BT.470 System B, BT.470 System GMatrix coefficients : BT.601

AudioID : 2Format : AACFormat/Info : Advanced Audio CodecFormat profile : LCCodec ID : 40Duration : 1 h 23 minBit rate mode : VariableBit rate : 128 kb/sMaximum bit rate : 134 kb/sChannel(s) : 2 channelsChannel positions : Front: L RSampling rate : 48.0 kHzFrame rate : 46.875 FPS (1024 spf)Compression mode : LossyStream size : 76.2 MiB (11%)Language : RussianDefault : YesAlternate group : 1Encoded date : UTC 2017-05-16 08:41:00Tagged date : UTC 2017-05-16 08:41:19
</div><!--/post_body-->

Трекер:  [ 16-Май-2017 11:00 ]

  

Скачать .torrent

Размер .torrent файла 14 KB


Размер: 724 MB
Хэш (hash) релиза: d09a704e23bce2e5628e119ece7aceabefffc6da

Еще никто не оставлял запись к записи скачать торрент [VIDEO] Алые паруса . Будь первым!

!Обратная связь