Chapter 174 | Фильмографии | VA - Hard Rock Attack - Collection [Vol.1-30 + Bonus] (2013-2018) MP3 320kbps

Скачать через торрент [VIDEO] Сампо бесплатно русская версия torrent активатор

Статистика раздачи
Размер:  824 MB   |    Зарегистрирован:  1 год 2 месяца   |    .torrent скачан:  36 раз   |   
Раздают:  1  
   
загрузка...
 
Автор Сообщение

Galfimbul

avatar Galfimbul


Сампо<hr class="post-hr">
<hr class="post-hr">Год выпуска: 1958
Страна: Финляндия, СССР
Жанр: эпос, сказка
Продолжительность: 01:34:45
Перевод: не требуется
Cубтитры: нет<hr class="post-hr">Режиссеры: Александр Птушко, Холгер Харривирта<hr class="post-hr">В ролях: Урхо Сомерсальми, Анна Орочко, Андрус Ошинь, Эве Киви, Иван Воронов, Ада Войцик, Георгий Милляр, Михаил Трояновский, Леннарт Лаурамаа, Тойво Ромппайнен, Эмма Хиппеляйнен, Н. Коллен и другие .<hr class="post-hr">Описание: Фильм-сказка по мотивам карело-финского эпоса «Калевала». Народ Калевалы мечтает о волшебной мельнице Сампо, которая без зерна дает и муку, и мед, и соль, и даже золото. Но великий мастер, вековечный кователь Ильмаринен, не может сделать Сампо без небесного огня, украденного Лоухи, владычицей страны чародеев. Коварная Лоухи и сама мечтает заполучить волшебную мельницу. Чтобы заставить Ильмаринена сделать ее для себя, она похищает сестру мастера…<hr class="post-hr"> Релиз группы <hr class="post-hr">Качество: SATRip / рип с DVB
Формат: MP4
Видео кодек: H.264
Аудио кодек: AAC
Видео: 640x344 AR:1.86 1080 kbps 25 fps
Аудио: 2ch 48 kHz 128 kbps<hr class="post-hr">
avs [info]: 640x344p 1:1 @ 25/1 fps (cfr)
x264 [info]: using SAR=1/1
x264 [info]: using cpu capabilities: MMX2 SSE2Fast SSSE3 SSE4.2 AVX FMA3 AVX2 LZCNT BMI2
x264 [info]: profile High, level 4.1

x264 [info]: frame I:742 Avg QP:19.39 size: 35784
x264 [info]: frame P:27317 Avg QP:22.13 size: 12288
x264 [info]: frame B:114083 Avg QP:25.27 size: 3553
x264 [info]: consecutive B-frames: 1.0% 0.5% 4.0% 13.0% 13.1% 66.4% 1.7% 0.4%
x264 [info]: mb I I16..4: 3.4% 75.7% 20.9%
x264 [info]: mb P I16..4: 0.3% 8.3% 1.5% P16..4: 35.0% 39.9% 12.6% 1.6% 0.1% skip: 0.7%
x264 [info]: mb B I16..4: 0.0% 0.7% 0.1% B16..8: 36.0% 17.8% 2.7% direct: 6.5% skip:36.2% L0:37.6% L1:43.9% BI:18.5%
x264 [info]: 8x8 transform intra:81.4% inter:48.7%
x264 [info]: direct mvs spatial:96.9% temporal:3.1%
x264 [info]: coded y,uvDC,uvAC intra: 96.1% 66.3% 24.2% inter: 24.2% 9.9% 1.1%
x264 [info]: i16 v,h,dc,p: 21% 14% 3% 62%
x264 [info]: i8 v,h,dc,ddl,ddr,vr,hd,vl,hu: 10% 11% 5% 9% 14% 12% 14% 10% 14%
x264 [info]: i4 v,h,dc,ddl,ddr,vr,hd,vl,hu: 15% 6% 3% 9% 14% 14% 13% 12% 14%
x264 [info]: i8c dc,h,v,p: 26% 38% 18% 18%
x264 [info]: Weighted P-Frames: Y:29.5% UV:6.7%
x264 [info]: ref P L0: 40.6% 11.1% 17.1% 7.4% 6.1% 4.8% 4.5% 2.5% 2.6% 2.5% 0.8% 0.0%
x264 [info]: ref B L0: 86.2% 7.0% 2.4% 1.3% 0.9% 0.9% 0.7% 0.4% 0.2%
x264 [info]: ref B L1: 97.8% 2.2%
x264 [info]: kb/s:1080.00

encoded 142142 frames, 20.55 fps, 1080.00 kb/s
GeneralComplete name : D:\Torrents\Сампо.1958.SATRip.x264.640x.rip by Frost O.S.mp4Format : MPEG-4Format profile : Base MediaCodec ID : isom (isom/avc1)File size : 824 MiBDuration : 1 h 34 minOverall bit rate mode : VariableOverall bit rate : 1 216 kb/sMovie name : Сампо 1958 SATRip x264 640x rip by Frost O SContentType : Short FilmEncoded date : UTC 2017-05-15 17:05:30Tagged date : UTC 2017-05-15 17:06:22Writing application : MkvToMp4 version: 0.224 (x64)Cover : YesComment : rip by Frost O.S

VideoID : 1Format : AVCFormat/Info : Advanced Video CodecFormat profile : [email protected] settings, CABAC : YesFormat settings, ReFrames : 10 framesCodec ID : avc1Codec ID/Info : Advanced Video CodingDuration : 1 h 34 minBit rate : 1 080 kb/sMaximum bit rate : 3 449 kb/sWidth : 640 pixelsHeight : 344 pixelsDisplay aspect ratio : 1.85:1Frame rate mode : ConstantFrame rate : 25.000 FPSColor space : YUVChroma subsampling : 4:2:0Bit depth : 8 bitsScan type : ProgressiveBits/(Pixel*Frame) : 0.196Stream size : 732 MiB (89%)Writing library : x264 core 148 r2744 b97ae06Encoding settings : cabac=1 / ref=10 / deblock=1:-1:-1 / analyse=0x3:0x133 / me=umh / subme=11 / psy=1 / psy_rd=0.95:0.00 / mixed_ref=1 / me_range=48 / chroma_me=1 / trellis=2 / 8x8dct=1 / cqm=0 / deadzone=21,11 / fast_pskip=0 / chroma_qp_offset=-2 / threads=6 / lookahead_threads=1 / sliced_threads=0 / nr=0 / decimate=0 / interlaced=0 / bluray_compat=0 / constrained_intra=0 / bframes=7 / b_pyramid=2 / b_adapt=2 / b_bias=0 / direct=3 / weightb=1 / open_gop=0 / weightp=2 / keyint=250 / keyint_min=25 / scenecut=40 / intra_refresh=0 / rc=2pass / mbtree=0 / bitrate=1080 / ratetol=1.0 / qcomp=0.65 / qpmin=0 / qpmax=69 / qpstep=4 / cplxblur=20.0 / qblur=0.5 / ip_ratio=1.40 / pb_ratio=1.30 / aq=1:0.80Language : EnglishEncoded date : UTC 2017-05-15 17:05:30Tagged date : UTC 2017-05-15 17:05:48Color range : LimitedColor primaries : BT.601 PALTransfer characteristics : BT.470 System B, BT.470 System GMatrix coefficients : BT.601

AudioID : 2Format : AACFormat/Info : Advanced Audio CodecFormat profile : LCCodec ID : 40Duration : 1 h 34 minBit rate mode : VariableBit rate : 128 kb/sMaximum bit rate : 131 kb/sChannel(s) : 2 channelsChannel positions : Front: L RSampling rate : 48.0 kHzFrame rate : 46.875 FPS (1024 spf)Compression mode : LossyStream size : 86.8 MiB (11%)Language : RussianDefault : YesAlternate group : 1Encoded date : UTC 2017-05-15 17:05:39Tagged date : UTC 2017-05-15 17:05:48
</div><!--/post_body-->

Трекер:  [ 15-Май-2017 19:30 ]

  

Скачать .torrent

Размер .torrent файла 16 KB


Размер: 824 MB
Хэш (hash) релиза: 21e4d5e1ea64d81aff824711424557f6187c73c3

Еще никто не оставлял запись к записи скачать торрент [VIDEO] Сампо . Будь первым!

!Обратная связь