Add Link | Unboxing Xiaomi Redmi 6 Pro - REDMI PALING "PRO" SEDUNIA | Télécharger

Скачать через торрент [VIDEO] Варвара-Краса, длинная коса бесплатно русская версия torrent активатор

Статистика раздачи
Размер:  905 MB   |    Зарегистрирован:  1 год 2 месяца   |    .torrent скачан:  35 раз   |   
Раздают:  1  
   
загрузка...
 
Автор Сообщение

Galfimbul

avatar Galfimbul


Варвара-Краса, длинная коса<hr class="post-hr">
<hr class="post-hr">Год выпуска: 1969
Страна: СССР
Жанр: сказка, семейный, фэнтези, драма, мелодрама, комедия,
Продолжительность: 01:20:18
Перевод: не требуется
Cубтитры: нет<hr class="post-hr">Режиссер: Александр Роу<hr class="post-hr">В ролях: Михаил Пуговкин, Георгий Милляр, Анатолий Кубацкий, Сергей Николаев, Алексей Катышев, Татьяна Клюева, Варвара Попова, Лидия Королева, Александр Хвыля, Борис Сичкин и другие .<hr class="post-hr">Описание: Жил да был царь Еремей. Отправился он в годовой поход, чтобы составить опись своего царства-государства. Наклонился он как-то к колодцу напиться, но тут его и схватил подводный царь Чудо — Юдо. Да потребовал выкуп за освобождение — такой, о чем Еремей не ведал и не гадал, что оно есть в его царстве. Царь согласился, еще не зная, что в его отсутствие царица родила ему сына.

Фильм рассказывает о том, как несмотря на всевозможные коварства и интриги, Андрей рыбацкий сын и Варвара повстречались и полюбили друг друга, как царю Еремею пришлось краснеть за своего ленивого и глупого наследника, и как в конце концов все закончилось хорошо.<hr class="post-hr"> Релиз группы <hr class="post-hr">Качество: DVDRip / рип с DVD9 (Custom)
Формат: MP4
Видео кодек: H.264
Аудио кодек: AAC
Видео: 800x340 AR:2.35 1440 kbps 25 fps
Аудио: 2ch 48 kHz 128 kbps<hr class="post-hr">
avs [info]: 800x340p 1:1 @ 25/1 fps (cfr)
x264 [info]: using SAR=1/1
x264 [info]: using cpu capabilities: MMX2 SSE2Fast SSSE3 SSE4.2 AVX FMA3 AVX2 LZCNT BMI2
x264 [info]: profile High, level 4.1

x264 [info]: frame I:837 Avg QP:20.35 size: 40735
x264 [info]: frame P:27638 Avg QP:23.45 size: 14483
x264 [info]: frame B:91990 Avg QP:25.54 size: 4707
x264 [info]: consecutive B-frames: 1.9% 2.3% 8.5% 32.9% 20.9% 26.5% 4.7% 1.9% 0.5%
x264 [info]: mb I I16..4: 1.0% 86.5% 12.5%
x264 [info]: mb P I16..4: 0.4% 12.0% 1.7% P16..4: 36.3% 36.1% 11.8% 1.0% 0.1% skip: 0.8%
x264 [info]: mb B I16..4: 0.0% 1.7% 0.3% B16..8: 33.8% 19.0% 2.8% direct: 7.2% skip:35.2% L0:38.2% L1:40.8% BI:21.0%
x264 [info]: 8x8 transform intra:84.9% inter:64.5%
x264 [info]: direct mvs spatial:97.9% temporal:2.1%
x264 [info]: coded y,uvDC,uvAC intra: 91.2% 83.0% 45.4% inter: 30.8% 30.4% 6.3%
x264 [info]: i16 v,h,dc,p: 18% 22% 4% 57%
x264 [info]: i8 v,h,dc,ddl,ddr,vr,hd,vl,hu: 12% 7% 4% 9% 14% 13% 15% 11% 15%
x264 [info]: i4 v,h,dc,ddl,ddr,vr,hd,vl,hu: 38% 7% 3% 5% 9% 9% 11% 7% 11%
x264 [info]: i8c dc,h,v,p: 31% 29% 18% 22%
x264 [info]: Weighted P-Frames: Y:46.9% UV:33.6%
x264 [info]: ref P L0: 46.0% 13.2% 14.5% 6.9% 4.7% 4.3% 3.4% 2.1% 2.0% 2.1% 0.9% 0.0%
x264 [info]: ref B L0: 84.7% 7.4% 2.6% 1.6% 1.1% 1.1% 0.8% 0.5% 0.3%
x264 [info]: ref B L1: 97.8% 2.2%
x264 [info]: kb/s:1440.10

encoded 120465 frames, 16.67 fps, 1440.10 kb/s
GeneralComplete name : D:\Torrents\Варвара-Краса, длинная коса.1969.DVDRip.x264.800x.rip by Frost O.S.mp4Format : MPEG-4Format profile : Base MediaCodec ID : isom (isom/avc1)File size : 905 MiBDuration : 1 h 20 minOverall bit rate mode : VariableOverall bit rate : 1 576 kb/sMovie name : Варвара-Краса, длинная коса 1969 DVDRip x264 800x rip by Frost O SContentType : Short FilmEncoded date : UTC 2017-05-15 13:42:30Tagged date : UTC 2017-05-15 13:43:31Writing application : MkvToMp4 version: 0.224 (x64)Cover : YesComment : rip by Frost O.S

VideoID : 1Format : AVCFormat/Info : Advanced Video CodecFormat profile : [email protected] settings, CABAC : YesFormat settings, ReFrames : 10 framesCodec ID : avc1Codec ID/Info : Advanced Video CodingDuration : 1 h 20 minBit rate : 1 440 kb/sMaximum bit rate : 4 561 kb/sWidth : 800 pixelsHeight : 340 pixelsDisplay aspect ratio : 2.35:1Frame rate mode : ConstantFrame rate : 25.000 FPSColor space : YUVChroma subsampling : 4:2:0Bit depth : 8 bitsScan type : ProgressiveBits/(Pixel*Frame) : 0.212Stream size : 827 MiB (91%)Writing library : x264 core 148 r2744 b97ae06Encoding settings : cabac=1 / ref=10 / deblock=1:-1:-1 / analyse=0x3:0x133 / me=umh / subme=11 / psy=1 / psy_rd=0.90:0.00 / mixed_ref=1 / me_range=48 / chroma_me=1 / trellis=2 / 8x8dct=1 / cqm=0 / deadzone=21,11 / fast_pskip=0 / chroma_qp_offset=-2 / threads=6 / lookahead_threads=1 / sliced_threads=0 / nr=0 / decimate=0 / interlaced=0 / bluray_compat=0 / constrained_intra=0 / bframes=8 / b_pyramid=2 / b_adapt=2 / b_bias=0 / direct=3 / weightb=1 / open_gop=0 / weightp=2 / keyint=250 / keyint_min=25 / scenecut=40 / intra_refresh=0 / rc=2pass / mbtree=0 / bitrate=1440 / ratetol=1.0 / qcomp=0.65 / qpmin=0 / qpmax=69 / qpstep=4 / cplxblur=20.0 / qblur=0.5 / ip_ratio=1.40 / pb_ratio=1.30 / aq=1:1.00Language : EnglishEncoded date : UTC 2017-05-15 13:42:30Tagged date : UTC 2017-05-15 13:42:53Color range : LimitedColor primaries : BT.601 PALTransfer characteristics : BT.470 System B, BT.470 System GMatrix coefficients : BT.601

AudioID : 2Format : AACFormat/Info : Advanced Audio CodecFormat profile : LCCodec ID : 40Duration : 1 h 20 minBit rate mode : VariableBit rate : 128 kb/sMaximum bit rate : 135 kb/sChannel(s) : 2 channelsChannel positions : Front: L RSampling rate : 48.0 kHzFrame rate : 46.875 FPS (1024 spf)Compression mode : LossyStream size : 73.5 MiB (8%)Language : RussianDefault : YesAlternate group : 1Encoded date : UTC 2017-05-15 13:42:45Tagged date : UTC 2017-05-15 13:42:53
</div><!--/post_body-->

Трекер:  [ 15-Май-2017 16:00 ]

  

Скачать .torrent

Размер .torrent файла 18 KB


Размер: 905 MB
Хэш (hash) релиза: bb0726cc1aefdab19b36142cc54d6b6de23e21a8

Еще никто не оставлял запись к записи скачать торрент [VIDEO] Варвара-Краса, длинная коса . Будь первым!

!Обратная связь