La Bourse pour les Nuls - 4e édition | God of War: Quick Look | Battling Butler (1926)

Скачать через торрент [VIDEO] Садко бесплатно русская версия torrent активатор

Статистика раздачи
Размер:  737 MB   |    Зарегистрирован:  1 год 2 месяца   |    .torrent скачан:  29 раз   |   
Раздают:  1  
   
загрузка...
 
Автор Сообщение

Galfimbul

avatar Galfimbul


Садко<hr class="post-hr">
<hr class="post-hr">Год выпуска: 1952
Страна: СССР
Жанр: сказка
Продолжительность: 01:24:40
Перевод: не требуется
Cубтитры: нет<hr class="post-hr">Режиссер: Александр Птушко<hr class="post-hr">В ролях: Сергей Столяров, Алла Ларионова, Нинель Мышкова, Б. Суровцев, Михаил Трояновский, Надир Малишевский, Николай Крючков, Иван Переверзев, Юрий Леонидов, Лев Фенин и другие .<hr class="post-hr">Описание: После долгих странствий по свету Садко — гусляр и купец — возвращается домой, в Великий Новгород. Может быть, здесь он найдет свое счастье?! Фильм снят по мотивам онежских былин.<hr class="post-hr"> Релиз группы <hr class="post-hr">Качество: DVDRip / рип с DVD5 (сжатый) "Ruscico"
Формат: MP4
Видео кодек: H.264
Аудио кодек: AAC
Видео: 478x360 AR:1.33 1080 kbps 25 fps
Аудио: 2ch 48 kHz 128 kbps<hr class="post-hr">
avs [info]: 478x360p 1:1 @ 25/1 fps (cfr)
x264 [info]: using SAR=1/1
x264 [info]: using cpu capabilities: MMX2 SSE2Fast SSSE3 SSE4.2 AVX FMA3 AVX2 LZCNT BMI2
x264 [info]: profile High, level 4.1

x264 [info]: frame I:760 Avg QP:18.91 size: 34655
x264 [info]: frame P:26759 Avg QP:21.95 size: 12089
x264 [info]: frame B:99497 Avg QP:23.62 size: 3378
x264 [info]: consecutive B-frames: 1.2% 1.2% 4.5% 31.4% 19.8% 29.6% 7.0% 4.2% 0.8% 0.3%
x264 [info]: mb I I16..4: 1.4% 79.6% 19.0%
x264 [info]: mb P I16..4: 0.1% 8.0% 1.1% P16..4: 29.9% 35.2% 19.7% 3.9% 0.6% skip: 1.5%
x264 [info]: mb B I16..4: 0.0% 0.9% 0.1% B16..8: 32.7% 20.3% 4.3% direct: 7.3% skip:34.4% L0:36.6% L1:40.0% BI:23.4%
x264 [info]: 8x8 transform intra:85.3% inter:53.0%
x264 [info]: direct mvs spatial:96.4% temporal:3.6%
x264 [info]: coded y,uvDC,uvAC intra: 98.0% 71.0% 36.5% inter: 32.1% 22.0% 3.4%
x264 [info]: i16 v,h,dc,p: 28% 39% 3% 30%
x264 [info]: i8 v,h,dc,ddl,ddr,vr,hd,vl,hu: 9% 9% 7% 10% 14% 12% 14% 11% 14%
x264 [info]: i4 v,h,dc,ddl,ddr,vr,hd,vl,hu: 10% 8% 3% 9% 15% 14% 15% 12% 14%
x264 [info]: i8c dc,h,v,p: 32% 31% 20% 16%
x264 [info]: Weighted P-Frames: Y:52.3% UV:27.7%
x264 [info]: ref P L0: 44.3% 13.9% 13.5% 7.9% 5.4% 4.7% 3.8% 2.5% 2.4% 1.5% 0.0%
x264 [info]: ref B L0: 83.2% 7.6% 3.2% 2.0% 1.4% 1.3% 0.8% 0.4%
x264 [info]: ref B L1: 97.6% 2.4%
x264 [info]: kb/s:1080.05

encoded 127016 frames, 24.85 fps, 1080.05 kb/s
GeneralComplete name : D:\Torrents\Садко.1952.DVDRip.x264.640x.rip by Frost O.S.mp4Format : MPEG-4Format profile : Base MediaCodec ID : isom (isom/avc1)File size : 737 MiBDuration : 1 h 24 minOverall bit rate mode : VariableOverall bit rate : 1 216 kb/sMovie name : Садко 1952 DVDRip x264 640x rip by Frost O SContentType : Short FilmEncoded date : UTC 2017-05-14 16:13:33Tagged date : UTC 2017-05-14 16:14:56Writing application : MkvToMp4 version: 0.224 (x64)Cover : YesComment : rip by Frost O.S

VideoID : 1Format : AVCFormat/Info : Advanced Video CodecFormat profile : [email protected] settings, CABAC : YesFormat settings, ReFrames : 9 framesCodec ID : avc1Codec ID/Info : Advanced Video CodingDuration : 1 h 24 minBit rate : 1 080 kb/sMaximum bit rate : 2 996 kb/sWidth : 478 pixelsHeight : 360 pixelsDisplay aspect ratio : 4:3Frame rate mode : ConstantFrame rate : 25.000 FPSColor space : YUVChroma subsampling : 4:2:0Bit depth : 8 bitsScan type : ProgressiveBits/(Pixel*Frame) : 0.251Stream size : 654 MiB (89%)Writing library : x264 core 148 r2744 b97ae06Encoding settings : cabac=1 / ref=9 / deblock=1:-1:-1 / analyse=0x3:0x133 / me=umh / subme=11 / psy=1 / psy_rd=1.00:0.00 / mixed_ref=1 / me_range=48 / chroma_me=1 / trellis=2 / 8x8dct=1 / cqm=0 / deadzone=21,11 / fast_pskip=0 / chroma_qp_offset=-2 / threads=6 / lookahead_threads=1 / sliced_threads=0 / nr=0 / decimate=0 / interlaced=0 / bluray_compat=0 / constrained_intra=0 / bframes=9 / b_pyramid=2 / b_adapt=2 / b_bias=0 / direct=3 / weightb=1 / open_gop=0 / weightp=2 / keyint=250 / keyint_min=25 / scenecut=40 / intra_refresh=0 / rc=2pass / mbtree=0 / bitrate=1080 / ratetol=1.0 / qcomp=0.65 / qpmin=0 / qpmax=69 / qpstep=4 / cplxblur=20.0 / qblur=0.5 / ip_ratio=1.40 / pb_ratio=1.30 / aq=1:1.00Language : EnglishEncoded date : UTC 2017-05-14 16:13:33Tagged date : UTC 2017-05-14 16:13:52Color range : LimitedColor primaries : BT.601 PALTransfer characteristics : BT.470 System B, BT.470 System GMatrix coefficients : BT.601

AudioID : 2Format : AACFormat/Info : Advanced Audio CodecFormat profile : LCCodec ID : 40Duration : 1 h 24 minBit rate mode : VariableBit rate : 128 kb/sMaximum bit rate : 135 kb/sChannel(s) : 2 channelsChannel positions : Front: L RSampling rate : 48.0 kHzFrame rate : 46.875 FPS (1024 spf)Compression mode : LossyStream size : 77.5 MiB (11%)Language : RussianDefault : YesAlternate group : 1Encoded date : UTC 2017-05-14 16:13:45Tagged date : UTC 2017-05-14 16:13:52
</div><!--/post_body-->

Трекер:  [ 14-Май-2017 18:30 ]

  

Скачать .torrent

Размер .torrent файла 15 KB


Размер: 737 MB
Хэш (hash) релиза: 09677ef1bc15e4beb857aa74d1978520f169bbd6

Еще никто не оставлял запись к записи скачать торрент [VIDEO] Садко . Будь первым!

!Обратная связь