Watch Movie | Linh Khiết | PS1 Suspense

Скачать через торрент [VIDEO] Сказка о царе Салтане бесплатно русская версия torrent активатор

Статистика раздачи
Размер:  710 MB   |    Зарегистрирован:  1 год 2 месяца   |    .torrent скачан:  31 раз   |   
Раздают:  1  
   
загрузка...
 
Автор Сообщение

Galfimbul

avatar Galfimbul


Сказка о царе Салтане<hr class="post-hr">
<hr class="post-hr">Год выпуска: 1966
Страна: СССР
Жанр: сказка
Продолжительность: 01:21:39
Перевод: не требуется
Cубтитры: нет<hr class="post-hr">Режиссер: Александр Птушко<hr class="post-hr">В ролях: Владимир Андреев, Лариса Голубкина, Олег Видов, Ксения Рябинкина, Сергей Мартинсон, Ольга Викланд, Вера Ивлева, Виктор Колпаков, Нина Беляева, Юрий Чекулаев, Валерий Носик, Григорий Шпигель, Павел Шальнов, Евгений Майхровский, Артем Карапетян .<hr class="post-hr">Описание: Три девицы под окном пряли поздно вечерком… А потом много чего было: и любовь, и клевета, и предательство, и чудеса, и множество волшебных приключений, и тридцать три богатыря, и, конечно же, счастливый конец…<hr class="post-hr"> Релиз группы <hr class="post-hr">Качество: DVDRip / рип с DVD5 "Крупный план" (Полная реставрация)
Формат: MP4
Видео кодек: H.264
Аудио кодек: AAC
Видео: 640x290 AR:2.21 1080 kbps 25 fps
Аудио: 2ch 48 kHz 128 kbps<hr class="post-hr">
avs [info]: 640x290p 1:1 @ 25/1 fps (cfr)
x264 [info]: using SAR=1/1
x264 [info]: using cpu capabilities: MMX2 SSE2Fast SSSE3 SSE4.2 AVX FMA3 AVX2 LZCNT BMI2
x264 [info]: profile High, level 4.1

x264 [info]: frame I:714 Avg QP:17.60 size: 35551
x264 [info]: frame P:26975 Avg QP:20.79 size: 11988
x264 [info]: frame B:94801 Avg QP:22.94 size: 3298
x264 [info]: consecutive B-frames: 1.4% 1.2% 7.9% 32.5% 13.7% 40.9% 1.5% 0.5% 0.3%
x264 [info]: mb I I16..4: 2.4% 74.3% 23.3%
x264 [info]: mb P I16..4: 0.3% 7.5% 2.1% P16..4: 31.2% 35.9% 17.3% 3.2% 0.5% skip: 1.9%
x264 [info]: mb B I16..4: 0.0% 0.8% 0.3% B16..8: 30.4% 21.0% 4.2% direct: 5.9% skip:37.4% L0:35.1% L1:38.7% BI:26.2%
x264 [info]: 8x8 transform intra:73.5% inter:57.2%
x264 [info]: direct mvs spatial:96.9% temporal:3.1%
x264 [info]: coded y,uvDC,uvAC intra: 89.3% 87.3% 59.3% inter: 27.5% 22.2% 7.5%
x264 [info]: i16 v,h,dc,p: 26% 25% 5% 45%
x264 [info]: i8 v,h,dc,ddl,ddr,vr,hd,vl,hu: 15% 11% 7% 8% 12% 11% 12% 11% 14%
x264 [info]: i4 v,h,dc,ddl,ddr,vr,hd,vl,hu: 42% 9% 4% 5% 8% 9% 8% 7% 9%
x264 [info]: i8c dc,h,v,p: 30% 28% 24% 18%
x264 [info]: Weighted P-Frames: Y:36.1% UV:14.5%
x264 [info]: ref P L0: 43.5% 15.6% 15.2% 6.7% 5.1% 4.1% 3.7% 2.4% 2.6% 1.1% 0.0%
x264 [info]: ref B L0: 84.0% 7.6% 3.1% 1.8% 1.3% 1.1% 0.7% 0.4%
x264 [info]: ref B L1: 97.0% 3.0%
x264 [info]: kb/s:1079.89

encoded 122490 frames, 23.74 fps, 1079.90 kb/s
GeneralComplete name : D:\Torrents\Сказка о царе Салтане.1966.DVDRip.x264.640x.rip by Frost O.S.mp4Format : MPEG-4Format profile : Base MediaCodec ID : isom (isom/avc1)File size : 710 MiBDuration : 1 h 21 minOverall bit rate mode : VariableOverall bit rate : 1 216 kb/sMovie name : Сказка о царе Салтане 1966 DVDRip x264 640x rip by Frost O SContentType : Short FilmEncoded date : UTC 2017-05-14 14:06:35Tagged date : UTC 2017-05-14 14:07:22Writing application : MkvToMp4 version: 0.224 (x64)Cover : YesComment : rip by Frost O.S

VideoID : 1Format : AVCFormat/Info : Advanced Video CodecFormat profile : [email protected] settings, CABAC : YesFormat settings, ReFrames : 9 framesCodec ID : avc1Codec ID/Info : Advanced Video CodingDuration : 1 h 21 minBit rate : 1 080 kb/sMaximum bit rate : 5 145 kb/sWidth : 640 pixelsHeight : 290 pixelsDisplay aspect ratio : 2.2:1Frame rate mode : ConstantFrame rate : 25.000 FPSColor space : YUVChroma subsampling : 4:2:0Bit depth : 8 bitsScan type : ProgressiveBits/(Pixel*Frame) : 0.233Stream size : 631 MiB (89%)Writing library : x264 core 148 r2744 b97ae06Encoding settings : cabac=1 / ref=9 / deblock=1:-1:-1 / analyse=0x3:0x133 / me=umh / subme=11 / psy=1 / psy_rd=0.90:0.00 / mixed_ref=1 / me_range=48 / chroma_me=1 / trellis=2 / 8x8dct=1 / cqm=0 / deadzone=21,11 / fast_pskip=0 / chroma_qp_offset=-2 / threads=6 / lookahead_threads=1 / sliced_threads=0 / nr=0 / decimate=0 / interlaced=0 / bluray_compat=0 / constrained_intra=0 / bframes=8 / b_pyramid=2 / b_adapt=2 / b_bias=0 / direct=3 / weightb=1 / open_gop=0 / weightp=2 / keyint=250 / keyint_min=25 / scenecut=40 / intra_refresh=0 / rc=2pass / mbtree=0 / bitrate=1080 / ratetol=1.0 / qcomp=0.70 / qpmin=0 / qpmax=69 / qpstep=4 / cplxblur=20.0 / qblur=0.5 / ip_ratio=1.40 / pb_ratio=1.30 / aq=1:0.90Language : EnglishEncoded date : UTC 2017-05-14 14:06:35Tagged date : UTC 2017-05-14 14:06:53Color range : LimitedColor primaries : BT.601 PALTransfer characteristics : BT.470 System B, BT.470 System GMatrix coefficients : BT.601

AudioID : 2Format : AACFormat/Info : Advanced Audio CodecFormat profile : LCCodec ID : 40Duration : 1 h 21 minBit rate mode : VariableBit rate : 128 kb/sMaximum bit rate : 135 kb/sChannel(s) : 2 channelsChannel positions : Front: L RSampling rate : 48.0 kHzFrame rate : 46.875 FPS (1024 spf)Compression mode : LossyStream size : 74.7 MiB (11%)Language : RussianDefault : YesAlternate group : 1Encoded date : UTC 2017-05-14 14:06:45Tagged date : UTC 2017-05-14 14:06:53
</div><!--/post_body-->

Трекер:  [ 14-Май-2017 17:00 ]

  

Скачать .torrent

Размер .torrent файла 14 KB


Размер: 710 MB
Хэш (hash) релиза: 2c743fc9198be539fb98e3f4c9da1a9568a5c2ca

Торренты, похожие на [VIDEO] Сказка о царе Салтане скачать торрент

Форум Название Автор Размер S L Добавлен
Видео (Фильмы/Клипы) ·· [VIDEO] Сказка о царе Салтане (Александр Птушко) [1966, Сказка, детский, семейный, DVDRip] [MP4, 640x] Galfimbul 498912089476 MB 0 0 1417543741

21:09

2-Дек-14

Еще никто не оставлял запись к записи скачать торрент [VIDEO] Сказка о царе Салтане . Будь первым!

!Обратная связь