Watch movie | Теория заговора | Leia mais…

Скачать через торрент [MULT] Кубо. Легенда о самурае Kubo and the Two Strings бесплатно русская версия torrent активатор

Статистика раздачи
Размер:  2.02 GB   |    Зарегистрирован:  1 год 2 месяца   |    .torrent скачан:  22 раза   |   
Раздают:  1  
   
загрузка...
 
Автор Сообщение

Galfimbul

avatar Galfimbul


Кубо. Легенда о самурае / Kubo and the Two Strings
«The quest begins»
Год выпуска: 2016
Оригинальное название: Kubo and the Two Strings
Страна: США
Жанр: мультфильм, фэнтези, приключения, семейный
Возраст: 6+

Режиссер: Трэвис Найт

В ролях: Арт Паркинсон, Шарлиз Терон, Рэйф Файнс, Джордж Такей, Кэри-Хироюки Тагава, Бренда Ваккаро, Руни Мара, Мэттью МакКонахи, Мейрик Мерфи, Мина Нодзи

Описание: Кубо — наследник великого рода, но когда возвратились духи прошлого, жаждущие мести, на его защиту отважилась встать лишь странная парочка хранителей. И теперь для Кубо единственный шанс на спасение — найти магические доспехи отца, легендарного самурая.

Продолжительность: 01:42:00
Перевод: Дублированный [Лицензия]
Оригинальная дорожка: есть

Автор рипа:

Качество видео: BDRip Исходник: Blu-Ray Remux (1080p) Формат: mp4
Видео кодек: MPEG-4 AVC Аудио кодек: AAC
Видео: 1280x536 (2.40:1) at 23.976 fps, AVC at 2 565 kbps avg, 0.156 bit/pixel
Аудио №1 Rus: 48.0 KHz, AAC, 2 ch, 128.0 Kbps
Аудио №2 Eng: 48.0 KHz, AAC, 2 ch, 128.0 Kbps
Субтитры: русские (полные), английские (полные)
Навигация по главам: есть
Размер: 2.02 GiB
avs [info]: 1280x536p 1:1 @ 24000/1001 fps (cfr)
x264 [info]: using SAR=1/1
x264 [info]: using cpu capabilities: MMX2 SSE2Fast SSSE3 Cache64
x264 [info]: profile High, level 4.1
x264 [info]: frame I:1180 Avg QP:13.75 size:130826
x264 [info]: frame P:31575 Avg QP:17.28 size: 31936
x264 [info]: frame B:113986 Avg QP:20.37 size: 7018
x264 [info]: consecutive B-frames: 2.1% 1.8% 7.7% 21.9% 21.8% 30.2% 7.3% 4.5% 2.6%
x264 [info]: mb I I16..4: 4.0% 75.6% 20.3%
x264 [info]: mb P I16..4: 1.5% 9.1% 1.3% P16..4: 43.7% 23.5% 15.8% 0.0% 0.0% skip: 5.0%
x264 [info]: mb B I16..4: 0.1% 0.8% 0.2% B16..8: 36.8% 7.0% 2.0% direct: 4.0% skip:49.1% L0:42.9% L1:48.5% BI: 8.6%
x264 [info]: 8x8 transform intra:76.3% inter:65.2%
x264 [info]: coded y,uvDC,uvAC intra: 80.0% 91.6% 76.0% inter: 17.9% 26.3% 7.0%
x264 [info]: i16 v,h,dc,p: 37% 13% 5% 45%
x264 [info]: i8 v,h,dc,ddl,ddr,vr,hd,vl,hu: 17% 14% 18% 6% 9% 9% 9% 8% 9%
x264 [info]: i4 v,h,dc,ddl,ddr,vr,hd,vl,hu: 21% 14% 14% 7% 11% 10% 9% 7% 6%
x264 [info]: i8c dc,h,v,p: 48% 20% 18% 13%
x264 [info]: Weighted P-Frames: Y:8.0% UV:5.1%
x264 [info]: ref P L0: 53.6% 10.5% 14.7% 6.1% 4.8% 4.3% 3.5% 2.2% 0.2% 0.0%
x264 [info]: ref B L0: 79.0% 9.4% 5.4% 2.3% 1.8% 1.6% 0.5%
x264 [info]: ref B L1: 94.3% 5.7%
x264 [info]: kb/s:2565.48
encoded 146741 frames, 2.76 fps, 2565.48 kb/s
GeneralComplete name : ...Kubo_legenda_o_samurae_2016_KinoGadget.mp4Format : MPEG-4Format profile : Base MediaCodec ID : isom (isom)File size : 2.02 GiBDuration : 1 h 42 minOverall bit rate mode : VariableOverall bit rate : 2 833 kb/sMovie name : Кубо. Легенда о самурае | KinoGadgetPerformer : Трэвис НайтDirector : Трэвис НайтActor : Арт Паркинсон / Шарлиз Терон / Рэйф Файнс / Джордж Такей / Кэри-Хироюки Тагава / Бренда Ваккаро / Руни Мара / Мэттью МакКонахи / Мейрик Мерфи / Мина НодзиScreenplay by : Марк Хеймс / Крис Батлер / Шеннон ТиндлProducer : Трэвис Найт / Эрианн СутнерGenre : Adventure, Animation, FamilyContentType : Short FilmRecorded date : 2016Encoded date : UTC 2017-05-14 04:32:37Tagged date : UTC 2017-05-14 12:14:41Cover : YesContentRating : mpaa|PG|200|LongDescription : Кубо — наследник великого рода, но когда возвратились духи прошлого, жаждущие мести, на его защиту отважилась встать лишь странная парочка хранителей. И теперь для Кубо единственный шанс на спасение — найти магические доспехи отца, легендарного самурая.HDVideo : Yes

VideoID : 1Format : AVCFormat/Info : Advanced Video CodecFormat profile : [email protected] settings, CABAC : YesFormat settings, ReFrames : 8 framesCodec ID : avc1Codec ID/Info : Advanced Video CodingDuration : 1 h 42 minBit rate : 2 565 kb/sMaximum bit rate : 17.3 Mb/sWidth : 1 280 pixelsHeight : 536 pixelsDisplay aspect ratio : 2.40:1Frame rate mode : ConstantFrame rate : 23.976 (24000/1001) FPSColor space : YUVChroma subsampling : 4:2:0Bit depth : 8 bitsScan type : ProgressiveBits/(Pixel*Frame) : 0.156Stream size : 1.83 GiB (91%)Writing library : x264 core 148 r2744 b97ae06Encoding settings : cabac=1 / ref=8 / deblock=1:1:1 / analyse=0x3:0x113 / me=umh / subme=7 / psy=1 / psy_rd=1.00:0.00 / mixed_ref=1 / me_range=32 / chroma_me=1 / trellis=2 / 8x8dct=1 / cqm=0 / deadzone=21,11 / fast_pskip=0 / chroma_qp_offset=-2 / threads=3 / lookahead_threads=1 / sliced_threads=0 / nr=0 / decimate=1 / interlaced=0 / bluray_compat=0 / constrained_intra=0 / bframes=8 / b_pyramid=2 / b_adapt=2 / b_bias=0 / direct=1 / weightb=1 / open_gop=0 / weightp=2 / keyint=250 / keyint_min=25 / scenecut=40 / intra_refresh=0 / rc_lookahead=60 / rc=crf / mbtree=1 / crf=18.0 / qcomp=0.60 / qpmin=0 / qpmax=69 / qpstep=4 / vbv_maxrate=62500 / vbv_bufsize=78125 / crf_max=0.0 / nal_hrd=none / filler=0 / ip_ratio=1.40 / aq=1:1.00Encoded date : UTC 2017-05-14 01:15:47Tagged date : UTC 2017-05-14 04:33:36

Audio #1ID : 2Format : AACFormat/Info : Advanced Audio CodecFormat profile : LCCodec ID : 40Duration : 1 h 42 minBit rate mode : VariableBit rate : 128 kb/sMaximum bit rate : 135 kb/sChannel(s) : 2 channelsChannel positions : Front: L RSampling rate : 48.0 kHzFrame rate : 46.875 FPS (1024 spf)Compression mode : LossyStream size : 93.4 MiB (5%)Language : RussianEncoded date : UTC 2017-05-14 01:21:09Tagged date : UTC 2017-05-14 04:33:36

Audio #2ID : 3Format : AACFormat/Info : Advanced Audio CodecFormat profile : LCCodec ID : 40Duration : 1 h 42 minBit rate mode : VariableBit rate : 128 kb/sMaximum bit rate : 135 kb/sChannel(s) : 2 channelsChannel positions : Front: L RSampling rate : 48.0 kHzFrame rate : 46.875 FPS (1024 spf)Compression mode : LossyStream size : 93.4 MiB (5%)Language : EnglishEncoded date : UTC 2017-05-14 01:29:06Tagged date : UTC 2017-05-14 04:33:36

Text #1ID : 4Format : Timed TextCodec ID : tx3gDuration : 1 h 33 minBit rate mode : VariableBit rate : 77 b/sStream size : 52.8 KiB (0%)Language : RussianForced : NoEncoded date : UTC 2017-05-14 04:33:35Tagged date : UTC 2017-05-14 04:33:36

Text #2ID : 5Format : Timed TextCodec ID : tx3gDuration : 1 h 33 minBit rate mode : VariableBit rate : 46 b/sStream size : 31.7 KiB (0%)Language : EnglishForced : NoEncoded date : UTC 2017-05-14 04:33:36Tagged date : UTC 2017-05-14 04:33:36

Menu00:00:00.000 : Chapter 100:03:20.575 : Chapter 200:07:34.704 : Chapter 300:12:32.960 : Chapter 400:17:44.021 : Chapter 500:22:04.865 : Chapter 600:26:22.455 : Chapter 700:32:35.620 : Chapter 800:37:22.114 : Chapter 900:42:57.575 : Chapter 1000:48:12.723 : Chapter 1100:51:11.735 : Chapter 1200:57:13.012 : Chapter 1301:03:20.379 : Chapter 1401:08:52.336 : Chapter 1501:13:04.671 : Chapter 1601:20:24.694 : Chapter 1701:24:46.331 : Chapter 1801:29:10.136 : Chapter 1901:33:13.629 : Chapter 20
</div><!--/post_body-->

Трекер:  [ 14-Май-2017 16:00 ]

  

Скачать .torrent

Размер .torrent файла 10 KB


Размер: 2.02 GB
Хэш (hash) релиза: b4d07b47514f73ccc9e4a5ed00a850339285c38b

Еще никто не оставлял запись к записи скачать торрент [MULT] Кубо. Легенда о самурае Kubo and the Two Strings . Будь первым!

!Обратная связь