[AnimeRG] Food Wars S2 - 03 (Shokugeki no Souma Ni no Sara) [1080p] [Multi-Sub] [x265] [pseudo] | Oliver McGowan | Dennoh Coil | 720p | BDRip | Dual Audio

Скачать через торрент [VIDEO] Руслан и Людмила бесплатно русская версия torrent активатор

Статистика раздачи
Размер:  1.19 GB   |    Зарегистрирован:  1 год 2 месяца   |    .torrent скачан:  27 раз   |   
Раздают:  1  
   
загрузка...
 
Автор Сообщение

Galfimbul

avatar Galfimbul


Руслан и Людмила (2 серии)<hr class="post-hr">
<hr class="post-hr">Год выпуска: 1972
Страна: СССР
Жанр: сказка
Продолжительность: первая серия 01:13:02 + вторая серия 01:06:34
Перевод: не требуется
Cубтитры: нет<hr class="post-hr">Режиссер: Александр Птушко<hr class="post-hr">В ролях: Наталья Петрова, Валерий Козинец, Олег Мокшанцев, Руслан Ахметов, Вячеслав Невинный, Андрей Абрикосов, Владимир Федоров, Наталья Хренникова, Мария Капнист, Игорь Ясулович, Виктор Шульгин, Сергей Мартинсон, Ээве Киви, Шавкат Газиев, Николай Кутузов<hr class="post-hr">Описание: Доблестный Руслан, отправившийся на поиски похищенной невесты, одолевает коварство, обман, злое колдовство — и, в конце концов, в жестоком бою побеждает Черномора…<hr class="post-hr"> Релиз группы <hr class="post-hr">Качество: DVDRip / рип с 2хDVD9 "Ruscico" и "Крупный план"
Формат: MP4
Видео кодек: H.264
Аудио кодек: AACПервая серия
<div class="post-box" style="border-color: #F86926;">Видео: 468x360 AR:4/3 1080 kbps 25 fps
Аудио: 2ch 48 kHz 128 kbps</div>
Вторая серия
<div class="post-box" style="border-color: #F86926;">Видео: 468x360 AR:4/3 1080 kbps 25 fps
Аудио: 2ch 48 kHz 128 kbps</div>
<hr class="post-hr">
<div class="sp-wrap">
<div class="sp-head folded">Logx264</div>
<div class="sp-body">avs [info]: 468x360p 1:1 @ 25/1 fps (cfr)
x264 [info]: using SAR=1/1
x264 [info]: using cpu capabilities: MMX2 SSE2Fast SSSE3 SSE4.2 AVX FMA3 AVX2 LZCNT BMI2
x264 [info]: profile High, level 4.1

x264 [info]: frame I:689 Avg QP:17.13 size: 35802
x264 [info]: frame P:23882 Avg QP:19.98 size: 11848
x264 [info]: frame B:84980 Avg QP:21.97 size: 3340
x264 [info]: consecutive B-frames: 1.2% 1.9% 7.4% 31.1% 19.7% 28.2% 5.8% 3.1% 1.6%
x264 [info]: mb I I16..4: 1.1% 79.5% 19.4%
x264 [info]: mb P I16..4: 0.1% 7.3% 1.4% P16..4: 32.3% 35.2% 19.4% 3.1% 0.5% skip: 0.8%
x264 [info]: mb B I16..4: 0.0% 0.8% 0.2% B16..8: 30.3% 21.0% 4.0% direct: 9.0% skip:34.7% L0:34.9% L1:36.3% BI:28.8%
x264 [info]: 8x8 transform intra:81.3% inter:59.4%
x264 [info]: direct mvs spatial:97.1% temporal:2.9%
x264 [info]: coded y,uvDC,uvAC intra: 93.8% 92.0% 68.9% inter: 34.7% 31.0% 9.1%
x264 [info]: i16 v,h,dc,p: 36% 11% 6% 47%
x264 [info]: i8 v,h,dc,ddl,ddr,vr,hd,vl,hu: 13% 10% 6% 9% 13% 11% 13% 12% 14%
x264 [info]: i4 v,h,dc,ddl,ddr,vr,hd,vl,hu: 13% 31% 3% 6% 10% 9% 10% 8% 11%
x264 [info]: i8c dc,h,v,p: 34% 24% 22% 20%
x264 [info]: Weighted P-Frames: Y:48.8% UV:28.5%
x264 [info]: ref P L0: 42.3% 15.2% 13.5% 7.1% 5.3% 4.6% 3.8% 2.4% 2.2% 2.3% 1.2% 0.0%
x264 [info]: ref B L0: 80.4% 8.3% 3.7% 2.3% 1.7% 1.5% 1.1% 0.7% 0.4%
x264 [info]: ref B L1: 97.1% 2.9%
x264 [info]: kb/s:1079.78

encoded 109551 frames, 25.12 fps, 1079.78 kb/s
GeneralComplete name : D:\Torrents\Руслан и Людмила.(2 серии).1972.DVDRip.x264.640x\Руслан и Людмила.(1 серия).1972.DVDRip.x264.640x.rip by Frost O.S.mp4Format : MPEG-4Format profile : Base MediaCodec ID : isom (isom/avc1)File size : 635 MiBDuration : 1 h 13 minOverall bit rate mode : VariableOverall bit rate : 1 216 kb/sMovie name : Руслан и Людмила (1 серия) 1972 DVDRip x264 640x rip by Frost O SContentType : Short FilmEncoded date : UTC 2017-05-14 11:38:11Tagged date : UTC 2017-05-14 11:38:51Writing application : MkvToMp4 version: 0.224 (x64)Cover : YesComment : rip by Frost O.S

VideoID : 1Format : AVCFormat/Info : Advanced Video CodecFormat profile : [email protected] settings, CABAC : YesFormat settings, ReFrames : 10 framesCodec ID : avc1Codec ID/Info : Advanced Video CodingDuration : 1 h 13 minBit rate : 1 080 kb/sMaximum bit rate : 4 216 kb/sWidth : 468 pixelsHeight : 360 pixelsDisplay aspect ratio : 4:3Frame rate mode : ConstantFrame rate : 25.000 FPSColor space : YUVChroma subsampling : 4:2:0Bit depth : 8 bitsScan type : ProgressiveBits/(Pixel*Frame) : 0.256Stream size : 564 MiB (89%)Writing library : x264 core 148 r2744 b97ae06Encoding settings : cabac=1 / ref=10 / deblock=1:-1:-1 / analyse=0x3:0x133 / me=umh / subme=11 / psy=1 / psy_rd=0.90:0.00 / mixed_ref=1 / me_range=48 / chroma_me=1 / trellis=2 / 8x8dct=1 / cqm=0 / deadzone=21,11 / fast_pskip=0 / chroma_qp_offset=-2 / threads=6 / lookahead_threads=1 / sliced_threads=0 / nr=0 / decimate=0 / interlaced=0 / bluray_compat=0 / constrained_intra=0 / bframes=8 / b_pyramid=2 / b_adapt=2 / b_bias=0 / direct=3 / weightb=1 / open_gop=0 / weightp=2 / keyint=250 / keyint_min=25 / scenecut=40 / intra_refresh=0 / rc=2pass / mbtree=0 / bitrate=1080 / ratetol=1.0 / qcomp=0.70 / qpmin=0 / qpmax=69 / qpstep=4 / cplxblur=20.0 / qblur=0.5 / ip_ratio=1.40 / pb_ratio=1.30 / aq=1:0.80Language : EnglishEncoded date : UTC 2017-05-14 11:38:11Tagged date : UTC 2017-05-14 11:38:26Color range : LimitedColor primaries : BT.601 PALTransfer characteristics : BT.470 System B, BT.470 System GMatrix coefficients : BT.601

AudioID : 2Format : AACFormat/Info : Advanced Audio CodecFormat profile : LCCodec ID : 40Duration : 1 h 13 minBit rate mode : VariableBit rate : 128 kb/sMaximum bit rate : 134 kb/sChannel(s) : 2 channelsChannel positions : Front: L RSampling rate : 48.0 kHzFrame rate : 46.875 FPS (1024 spf)Compression mode : LossyStream size : 66.9 MiB (11%)Language : RussianDefault : YesAlternate group : 1Encoded date : UTC 2017-05-14 11:38:19Tagged date : UTC 2017-05-14 11:38:26
</div>
</div>
<div class="sp-wrap">
<div class="sp-head folded">Logx264</div>
<div class="sp-body">avs [info]: 468x360p 1:1 @ 25/1 fps (cfr)
x264 [info]: using SAR=1/1
x264 [info]: using cpu capabilities: MMX2 SSE2Fast SSSE3 SSE4.2 AVX FMA3 AVX2 LZCNT BMI2
x264 [info]: profile High, level 4.1

x264 [info]: frame I:632 Avg QP:18.26 size: 31063
x264 [info]: frame P:22412 Avg QP:21.32 size: 10889
x264 [info]: frame B:76807 Avg QP:23.12 size: 3584
x264 [info]: consecutive B-frames: 1.3% 1.9% 7.9% 37.2% 18.6% 24.7% 4.5% 2.3% 1.6%
x264 [info]: mb I I16..4: 1.0% 82.8% 16.2%
x264 [info]: mb P I16..4: 0.3% 12.7% 1.8% P16..4: 31.9% 34.2% 15.8% 2.1% 0.3% skip: 1.0%
x264 [info]: mb B I16..4: 0.0% 1.8% 0.3% B16..8: 31.4% 21.4% 4.3% direct: 8.2% skip:32.8% L0:37.9% L1:38.3% BI:23.8%
x264 [info]: 8x8 transform intra:85.6% inter:65.7%
x264 [info]: direct mvs spatial:96.4% temporal:3.6%
x264 [info]: coded y,uvDC,uvAC intra: 94.3% 89.4% 61.3% inter: 35.2% 33.3% 8.1%
x264 [info]: i16 v,h,dc,p: 38% 13% 4% 45%
x264 [info]: i8 v,h,dc,ddl,ddr,vr,hd,vl,hu: 12% 9% 4% 10% 13% 12% 14% 12% 15%
x264 [info]: i4 v,h,dc,ddl,ddr,vr,hd,vl,hu: 12% 24% 3% 6% 12% 11% 12% 9% 12%
x264 [info]: i8c dc,h,v,p: 32% 24% 22% 22%
x264 [info]: Weighted P-Frames: Y:49.7% UV:32.7%
x264 [info]: ref P L0: 42.7% 15.2% 13.6% 7.0% 5.3% 4.7% 3.8% 2.4% 2.1% 2.2% 1.1% 0.0%
x264 [info]: ref B L0: 81.1% 7.7% 3.6% 2.3% 1.7% 1.5% 1.1% 0.6% 0.4%
x264 [info]: ref B L1: 97.3% 2.7%
x264 [info]: kb/s:1079.49

encoded 99851 frames, 24.29 fps, 1079.50 kb/s
GeneralComplete name : D:\Torrents\Руслан и Людмила.(2 серии).1972.DVDRip.x264.640x\Руслан и Людмила.(2 серия).1972.DVDRip.x264.640x.rip by Frost O.S.mp4Format : MPEG-4Format profile : Base MediaCodec ID : isom (isom/avc1)File size : 579 MiBDuration : 1 h 6 minOverall bit rate mode : VariableOverall bit rate : 1 216 kb/sMovie name : Руслан и Людмила (2 серия) 1972 DVDRip x264 640x rip by Frost O SContentType : Short FilmEncoded date : UTC 2017-05-14 11:41:02Tagged date : UTC 2017-05-14 11:41:38Writing application : MkvToMp4 version: 0.224 (x64)Cover : YesComment : rip by Frost O.S

VideoID : 1Format : AVCFormat/Info : Advanced Video CodecFormat profile : [email protected] settings, CABAC : YesFormat settings, ReFrames : 10 framesCodec ID : avc1Codec ID/Info : Advanced Video CodingDuration : 1 h 6 minBit rate : 1 080 kb/sMaximum bit rate : 3 034 kb/sWidth : 468 pixelsHeight : 360 pixelsDisplay aspect ratio : 4:3Frame rate mode : ConstantFrame rate : 25.000 FPSColor space : YUVChroma subsampling : 4:2:0Bit depth : 8 bitsScan type : ProgressiveBits/(Pixel*Frame) : 0.256Stream size : 514 MiB (89%)Writing library : x264 core 148 r2744 b97ae06Encoding settings : cabac=1 / ref=10 / deblock=1:-1:-1 / analyse=0x3:0x133 / me=umh / subme=11 / psy=1 / psy_rd=0.90:0.00 / mixed_ref=1 / me_range=48 / chroma_me=1 / trellis=2 / 8x8dct=1 / cqm=0 / deadzone=21,11 / fast_pskip=0 / chroma_qp_offset=-2 / threads=6 / lookahead_threads=1 / sliced_threads=0 / nr=0 / decimate=0 / interlaced=0 / bluray_compat=0 / constrained_intra=0 / bframes=8 / b_pyramid=2 / b_adapt=2 / b_bias=0 / direct=3 / weightb=1 / open_gop=0 / weightp=2 / keyint=250 / keyint_min=25 / scenecut=40 / intra_refresh=0 / rc=2pass / mbtree=0 / bitrate=1080 / ratetol=1.0 / qcomp=0.70 / qpmin=0 / qpmax=69 / qpstep=4 / cplxblur=20.0 / qblur=0.5 / ip_ratio=1.40 / pb_ratio=1.30 / aq=1:1.00Language : EnglishEncoded date : UTC 2017-05-14 11:41:02Tagged date : UTC 2017-05-14 11:41:16Color range : LimitedColor primaries : BT.601 PALTransfer characteristics : BT.470 System B, BT.470 System GMatrix coefficients : BT.601

AudioID : 2Format : AACFormat/Info : Advanced Audio CodecFormat profile : LCCodec ID : 40Duration : 1 h 6 minBit rate mode : VariableBit rate : 128 kb/sMaximum bit rate : 135 kb/sChannel(s) : 2 channelsChannel positions : Front: L RSampling rate : 48.0 kHzFrame rate : 46.875 FPS (1024 spf)Compression mode : LossyStream size : 60.9 MiB (11%)Language : RussianDefault : YesAlternate group : 1Encoded date : UTC 2017-05-14 11:41:09Tagged date : UTC 2017-05-14 11:41:16
</div>
</div> </div><!--/post_body-->

Трекер:  [ 14-Май-2017 14:00 ]

  

Скачать .torrent

Размер .torrent файла 12 KB


Размер: 1.19 GB
Хэш (hash) релиза: e576efa08ced6f7c69c2021d2a1330a754d49a94

Еще никто не оставлял запись к записи скачать торрент [VIDEO] Руслан и Людмила . Будь первым!

!Обратная связь