Invisible Man - Der Unsichtbare | Lou Nova | Télécharger Part 3

Скачать через торрент [VIDEO] Обитель зла: Последняя глава Resident Evil: The Final Chapter бесплатно русская версия torrent активатор

Статистика раздачи
Размер:  2.06 GB   |    Зарегистрирован:  1 год 2 месяца   |    .torrent скачан:  53 раза   |   
Раздают:  1  
   
загрузка...
 
Автор Сообщение

Galfimbul

avatar Galfimbul


Обитель зла: Последняя глава / Resident Evil: The Final Chapter
«The beginning of the end»
Год выпуска: 2016
Оригинальное название: Resident Evil: The Final Chapter
Страна: США, Германия, Франция, Великобритания, Япония, Канада, ЮАР, Австралия
Жанр: ужасы, фантастика, боевик, триллер
Возраст: 18+

Режиссер: Пол У. С. Андерсон

В ролях: Милла Йовович, Иэн Глен, Эли Лартер, Шон Робертс, Оуэн Мэкен, Фрайзер Джеймс, Руби Роуз, Уильям Леви, Рола, Эвер Андерсон, Джун Ки Ли

Описание: Действия фильма разворачиваются с того момента, на котором закончилась предыдущая часть. После того как Вескер предал Элис в Вашингтоне, конец истории человечества стал еще ближе. Элис — последняя надежда на спасение мира. Она должна вернуться к точке отсчета, туда, где все и началось — город Раккун-Сити, где корпорация «Амбрелла» готовится к финальной атаке по тем, кому удалось выжить.

В гонке со временем Элис вооружится до зубов и объединится с друзьями и теми, кого не ожидала увидеть в роли своих союзников. Вместе они будут биться против армии мертвецов и новых чудовищных мутантов. Находясь под угрозой потери своих способностей и готовясь к неминуемой атаке корпорации, Элис столкнется с еще более трудными проблемами, а человечество тем временем будет находиться на грани гибели.

Продолжительность: 01:46:33
Перевод: Дублированный [Лицензия]
Оригинальная дорожка: нет

Автор рипа:

Качество видео: BDRip Исходник: Blu-Ray Remux (1080p) Формат: mp4
Видео кодек: MPEG-4 AVC Аудио кодек: AAC
Видео: 1280x534 (2.40:1) at 23.976 fps, AVC at 2 636 kbps avg, 0.161 bit/pixel
Аудио №1 Rus: 48.0 KHz, AAC, 2 ch, 128.0 Kbps
Субтитры: нет
Навигация по главам: есть
Размер: 2.06 GiB
avs [info]: 1280x534p 1:1 @ 24000/1001 fps (cfr)
x264 [info]: using SAR=1/1
x264 [info]: using cpu capabilities: MMX2 SSE2Fast SSSE3 Cache64
x264 [info]: profile High, level 4.1
x264 [info]: frame I:2068 Avg QP:12.73 size: 74138
x264 [info]: frame P:41628 Avg QP:16.76 size: 23058
x264 [info]: frame B:109592 Avg QP:18.21 size: 9062
x264 [info]: consecutive B-frames: 6.3% 5.9% 11.3% 28.3% 18.0% 21.6% 8.7%
x264 [info]: mb I I16..4: 10.5% 70.8% 18.7%
x264 [info]: mb P I16..4: 3.6% 18.2% 2.7% P16..4: 35.9% 17.8% 8.9% 0.0% 0.0% skip:12.9%
x264 [info]: mb B I16..4: 0.3% 1.5% 0.3% B16..8: 38.3% 9.5% 1.9% direct: 6.3% skip:41.9% L0:46.3% L1:45.8% BI: 7.9%
x264 [info]: 8x8 transform intra:73.8% inter:69.5%
x264 [info]: coded y,uvDC,uvAC intra: 65.5% 66.7% 38.2% inter: 21.8% 18.6% 2.3%
x264 [info]: i16 v,h,dc,p: 24% 18% 5% 52%
x264 [info]: i8 v,h,dc,ddl,ddr,vr,hd,vl,hu: 20% 16% 22% 5% 8% 8% 8% 7% 7%
x264 [info]: i4 v,h,dc,ddl,ddr,vr,hd,vl,hu: 27% 19% 17% 5% 8% 7% 7% 5% 4%
x264 [info]: i8c dc,h,v,p: 53% 20% 19% 8%
x264 [info]: Weighted P-Frames: Y:6.8% UV:4.3%
x264 [info]: ref P L0: 53.0% 8.5% 14.0% 6.9% 4.5% 3.8% 2.8% 1.9% 1.6% 1.5% 1.4% 0.3% 0.0%
x264 [info]: ref B L0: 77.8% 9.4% 5.0% 2.3% 1.8% 1.3% 1.1% 0.7% 0.5% 0.2%
x264 [info]: ref B L1: 95.5% 4.5%
x264 [info]: kb/s:2635.57
encoded 153288 frames, 2.17 fps, 2635.57 kb/s
GeneralComplete name : ...Obitel_zla_poslednyaya_glava_2016_KinoGadget.mp4Format : MPEG-4Format profile : Base MediaCodec ID : isom (isom)File size : 2.06 GiBDuration : 1 h 46 minOverall bit rate mode : VariableOverall bit rate : 2 771 kb/sMovie name : Обитель зла: Последняя глава | KinoGadgetPerformer : Пол У. С. АндерсонDirector : Пол У. С. АндерсонActor : Милла Йовович / Иэн Глен / Эли Лартер / Шон Робертс / Оуэн Мэкен / Фрайзер Джеймс / Руби Роуз / Уильям Леви / Рола / Эвер Андерсон / Джун Ки ЛиScreenplay by : Пол У. С. АндерсонProducer : Пол У. С. Андерсон / Джереми Болт / Сэмюэл ХадидаGenre : Action, HorrorContentType : Short FilmRecorded date : 2016Encoded date : UTC 2017-05-07 17:26:06Tagged date : UTC 2017-05-13 07:02:10Cover : YesContentRating : mpaa|R|400|LongDescription : Действия фильма разворачиваются с того момента, на котором закончилась предыдущая часть. После того как Вескер предал Элис в Вашингтоне, конец истории человечества стал еще ближе. Элис — последняя надежда на спасение мира. Она должна вернуться к точке отсчета, туда, где все и началось — город Раккун-Сити, где корпорация «Амбрелла» готовится к финальной атаке по тем, кому удалось выжить.HDVideo : Yes

VideoID : 1Format : AVCFormat/Info : Advanced Video CodecFormat profile : [email protected] settings, CABAC : YesFormat settings, ReFrames : 11 framesCodec ID : avc1Codec ID/Info : Advanced Video CodingDuration : 1 h 46 minBit rate : 2 636 kb/sMaximum bit rate : 21.9 Mb/sWidth : 1 280 pixelsHeight : 534 pixelsDisplay aspect ratio : 2.40:1Frame rate mode : ConstantFrame rate : 23.976 (24000/1001) FPSColor space : YUVChroma subsampling : 4:2:0Bit depth : 8 bitsScan type : ProgressiveBits/(Pixel*Frame) : 0.161Stream size : 1.96 GiB (95%)Writing library : x264 core 148 r2744 b97ae06Encoding settings : cabac=1 / ref=11 / deblock=1:-1:-1 / analyse=0x3:0x113 / me=umh / subme=7 / psy=1 / psy_rd=1.00:0.00 / mixed_ref=1 / me_range=32 / chroma_me=1 / trellis=2 / 8x8dct=1 / cqm=0 / deadzone=21,11 / fast_pskip=0 / chroma_qp_offset=-2 / threads=3 / lookahead_threads=1 / sliced_threads=0 / nr=0 / decimate=1 / interlaced=0 / bluray_compat=0 / constrained_intra=0 / bframes=6 / b_pyramid=2 / b_adapt=2 / b_bias=0 / direct=1 / weightb=1 / open_gop=0 / weightp=2 / keyint=250 / keyint_min=25 / scenecut=40 / intra_refresh=0 / rc_lookahead=60 / rc=crf / mbtree=1 / crf=17.0 / qcomp=0.60 / qpmin=0 / qpmax=69 / qpstep=4 / vbv_maxrate=62500 / vbv_bufsize=78125 / crf_max=0.0 / nal_hrd=none / filler=0 / ip_ratio=1.40 / aq=1:1.00Encoded date : UTC 2017-05-07 09:45:30Tagged date : UTC 2017-05-07 17:26:52

AudioID : 2Format : AACFormat/Info : Advanced Audio CodecFormat profile : LCCodec ID : 40Duration : 1 h 46 minBit rate mode : VariableBit rate : 128 kb/sMaximum bit rate : 135 kb/sChannel(s) : 2 channelsChannel positions : Front: L RSampling rate : 48.0 kHzFrame rate : 46.875 FPS (1024 spf)Compression mode : LossyStream size : 97.6 MiB (5%)Language : RussianEncoded date : UTC 2017-05-07 10:00:34Tagged date : UTC 2017-05-07 17:26:52

Menu00:00:00.000 : Chapter 0100:05:39.672 : Chapter 0200:11:18.177 : Chapter 0300:17:00.102 : Chapter 0400:22:36.146 : Chapter 0500:27:21.931 : Chapter 0600:33:35.888 : Chapter 0700:40:43.816 : Chapter 0800:46:29.328 : Chapter 0900:53:11.980 : Chapter 1001:03:11.871 : Chapter 1101:10:41.070 : Chapter 1201:15:30.776 : Chapter 1301:22:51.007 : Chapter 1401:28:26.092 : Chapter 1501:35:00.653 : Chapter 16
</div><!--/post_body-->

Трекер:  [ 13-Май-2017 11:00 ]

  

Скачать .torrent

Размер .torrent файла 10 KB


Размер: 2.06 GB
Хэш (hash) релиза: 150e17cf1c67a61ba1526661e090fd2f51a78ee2

Торренты, похожие на [VIDEO] Обитель зла: Последняя глава Resident Evil: The Final Chapter скачать торрент

Форум Название Автор Размер S L Добавлен
Видео (Фильмы/Клипы) ·· [VIDEO] Обитель зла: Последняя глава / Resident Evil: The Final Chapter (Пол У. С. Андерсон / Paul W.S. Anderson) [2016, ужасы, фантастика, боевик, триллер, BDRip] [MP4, 960x] [Theatrical Cut] Galfimbul 17737924551.65 GB 0 0 1496964246

02:24

9-Июн-17

Видео (Фильмы/Клипы) ·· [VIDEO] Обитель зла: Последняя глава / Resident Evil: The Final Chapter (Пол У. С. Андерсон / Paul W.S. Anderson) [2016, ужасы, фантастика, боевик, триллер, HDRip] [MP4, 480x] [Theatrical Cut] Dub BD CEE Galfimbul 483503706461 MB 0 0 1496964218

02:23

9-Июн-17

Видео (Фильмы/Клипы) ·· [VIDEO] Обитель зла: Последняя глава / Resident Evil: The Final Chapter (Пол У. С. Андерсон / Paul W.S. Anderson) [2016, ужасы, фантастика, боевик, триллер, BDRip] [MP4, 960x] [Theatrical Cut] Dub (Rus, Ukr), Original, Sub (rus, eng) Galfimbul 15631786111.46 GB 0 0 1493304477

17:47

27-Апр-17

Видео (Фильмы/Клипы) ·· [VIDEO] Обитель зла: Последняя глава / Resident Evil: The Final Chapter (Пол У. С. Андерсон / Paul W.S. Anderson) [2016, ужасы, фантастика, боевик, триллер, HDRip] [MP4, 480x] [Theatrical Cut] Dub iTunes Galfimbul 483493159461 MB 0 0 1493304471

17:47

27-Апр-17

Еще никто не оставлял запись к записи скачать торрент [VIDEO] Обитель зла: Последняя глава Resident Evil: The Final Chapter . Будь первым!

!Обратная связь