Eps10 American Playboy: The Hugh Hefner Story (2017) | Charlene Choi | Power Rangers In Space

Скачать через торрент [VIDEO] Играй до смерти Truth or Dare бесплатно русская версия torrent активатор

Статистика раздачи
Размер:  2.02 GB   |    Зарегистрирован:  1 год 2 месяца   |    .torrent скачан:  29 раз   |   
Раздают:  1  
   
загрузка...
 
Автор Сообщение

Galfimbul

avatar Galfimbul


Играй до смерти / Truth or Dare
«Правда тебя убьёт!»
Год выпуска: 2011
Оригинальное название: Truth or Dare
Страна: Великобритания
Жанр: ужасы, триллер, комедия, детектив
Возраст: 18+

Режиссер: Роберт Хит

В ролях: Лайам Бойл, Джек Гордон, Флоренс Холл, Никки Хенсон, Дженни Жак, Томас Кейн, Джейсон Мацца, Дэвид Оукс, Дэвид Стерн

Описание: Пятеро студентов собираются отметить завершение сессии несколькими раундами любимой игры «Правда или желание» в загородном особняке. Спустя несколько месяцев участников игры собирает странноватый брат одного из студентов, сведшего счеты с жизнью. Парень хочет выяснить причины самоубийства и вынуждает собравшихся начать игру, которую можно завершить только вместе со смертью…

Продолжительность: 01:35:27
Перевод: Дублированный
Оригинальная дорожка: есть

Автор рипа:

Качество видео: BDRip Исходник: Blu-Ray Remux (1080p) Формат: mp4
Видео кодек: MPEG-4 AVC Аудио кодек: AAC
Видео: 1280x534 (2.40:1) at 23.976 fps, AVC at 2 636 kbps avg, 0.161 bit/pixel
Аудио №1 Rus: 48.0 KHz, AAC, 2 ch, 128.0 Kbps
Аудио №2 Ger: 48.0 KHz, AAC, 2 ch, 128.0 Kbps
Аудио №3 Eng: 48.0 KHz, AAC, 2 ch, 128.0 Kbps
Субтитры: русские (полные)
Навигация по главам: есть
Размер: 2.02 GiB
avs [info]: 1280x534p 1:1 @ 24000/1001 fps (cfr)
x264 [info]: using SAR=1/1
x264 [info]: using cpu capabilities: MMX2 SSE2Fast SSSE3 Cache64
x264 [info]: profile High, level 4.1
x264 [info]: frame I:1445 Avg QP:12.66 size: 98763
x264 [info]: frame P:31422 Avg QP:16.50 size: 28230
x264 [info]: frame B:104410 Avg QP:18.98 size: 8205
x264 [info]: consecutive B-frames: 2.1% 2.5% 8.2% 33.4% 20.1% 26.7% 6.9%
x264 [info]: mb I I16..4: 8.4% 70.7% 20.9%
x264 [info]: mb P I16..4: 1.4% 9.9% 1.2% P16..4: 39.2% 23.8% 12.8% 0.0% 0.0% skip:11.7%
x264 [info]: mb B I16..4: 0.1% 1.2% 0.1% B16..8: 38.7% 7.4% 1.7% direct: 4.1% skip:46.8% L0:42.7% L1:46.5% BI:10.8%
x264 [info]: 8x8 transform intra:78.6% inter:64.2%
x264 [info]: coded y,uvDC,uvAC intra: 75.1% 80.5% 55.5% inter: 17.8% 20.6% 3.6%
x264 [info]: i16 v,h,dc,p: 35% 11% 5% 49%
x264 [info]: i8 v,h,dc,ddl,ddr,vr,hd,vl,hu: 21% 12% 22% 5% 8% 9% 8% 8% 7%
x264 [info]: i4 v,h,dc,ddl,ddr,vr,hd,vl,hu: 25% 14% 13% 6% 11% 10% 9% 7% 6%
x264 [info]: i8c dc,h,v,p: 52% 16% 22% 10%
x264 [info]: Weighted P-Frames: Y:3.3% UV:1.8%
x264 [info]: ref P L0: 50.7% 10.5% 14.5% 6.1% 4.8% 3.7% 3.2% 1.8% 1.7% 1.5% 1.5% 0.1% 0.0%
x264 [info]: ref B L0: 79.1% 9.1% 4.5% 2.1% 1.6% 1.3% 1.0% 0.6% 0.4% 0.2%
x264 [info]: ref B L1: 95.3% 4.7%
x264 [info]: kb/s:2635.86
encoded 137277 frames, 2.44 fps, 2635.86 kb/s
GeneralComplete name : ...Igraj_do_smerti_2012_KinoGadget.mp4Format : MPEG-4Format profile : Base MediaCodec ID : isom (isom)File size : 2.02 GiBDuration : 1 h 35 minOverall bit rate mode : VariableOverall bit rate : 3 035 kb/sMovie name : Играй до смерти | KinoGadgetPerformer : Роберт ХитDirector : Роберт ХитActor : Лайам Бойл / Джек Гордон / Флоренс Холл / Никки Хенсон / Дженни Жак / Томас Кейн / Джейсон Мацца / Дэвид Оукс / Дэвид СтернScreenplay by : Мэттью МакГуханProducer : Руперт Джермин / Ричард Джонс / Питер БалмGenre : Horror, ThrillerContentType : Short FilmRecorded date : 2012Encoded date : UTC 2017-05-09 09:35:02Tagged date : UTC 2017-05-13 08:04:57Cover : YesContentRating : mpaa|R|400|LongDescription : Пятеро студентов собираются отметить завершение сессии несколькими раундами любимой игры «Правда или желание» в загородном особняке. Спустя несколько месяцев участников игры собирает странноватый брат одного из студентов, сведшего счеты с жизнью. Парень хочет выяснить причины самоубийства и вынуждает собравшихся начать игру, которую можно завершить только вместе со смертью…HDVideo : Yes

VideoID : 1Format : AVCFormat/Info : Advanced Video CodecFormat profile : [email protected] settings, CABAC : YesFormat settings, ReFrames : 11 framesCodec ID : avc1Codec ID/Info : Advanced Video CodingDuration : 1 h 35 minBit rate : 2 636 kb/sMaximum bit rate : 24.2 Mb/sWidth : 1 280 pixelsHeight : 534 pixelsDisplay aspect ratio : 2.40:1Frame rate mode : ConstantFrame rate : 23.976 (24000/1001) FPSColor space : YUVChroma subsampling : 4:2:0Bit depth : 8 bitsScan type : ProgressiveBits/(Pixel*Frame) : 0.161Stream size : 1.76 GiB (87%)Writing library : x264 core 148 r2744 b97ae06Encoding settings : cabac=1 / ref=11 / deblock=1:-1:-1 / analyse=0x3:0x113 / me=umh / subme=7 / psy=1 / psy_rd=1.00:0.00 / mixed_ref=1 / me_range=32 / chroma_me=1 / trellis=2 / 8x8dct=1 / cqm=0 / deadzone=21,11 / fast_pskip=0 / chroma_qp_offset=-2 / threads=3 / lookahead_threads=1 / sliced_threads=0 / nr=0 / decimate=1 / interlaced=0 / bluray_compat=0 / constrained_intra=0 / bframes=6 / b_pyramid=2 / b_adapt=2 / b_bias=0 / direct=1 / weightb=1 / open_gop=0 / weightp=2 / keyint=250 / keyint_min=25 / scenecut=40 / intra_refresh=0 / rc_lookahead=60 / rc=crf / mbtree=1 / crf=17.0 / qcomp=0.60 / qpmin=0 / qpmax=69 / qpstep=4 / vbv_maxrate=62500 / vbv_bufsize=78125 / crf_max=0.0 / nal_hrd=none / filler=0 / ip_ratio=1.40 / aq=1:1.00Encoded date : UTC 2017-05-09 07:37:58Tagged date : UTC 2017-05-09 09:36:45

Audio #1ID : 2Format : AACFormat/Info : Advanced Audio CodecFormat profile : LCCodec ID : 40Duration : 1 h 35 minBit rate mode : VariableBit rate : 128 kb/sMaximum bit rate : 135 kb/sChannel(s) : 2 channelsChannel positions : Front: L RSampling rate : 48.0 kHzFrame rate : 46.875 FPS (1024 spf)Compression mode : LossyStream size : 87.3 MiB (4%)Language : RussianEncoded date : UTC 2017-05-09 07:50:12Tagged date : UTC 2017-05-09 09:36:45

Audio #2ID : 3Format : AACFormat/Info : Advanced Audio CodecFormat profile : LCCodec ID : 40Duration : 1 h 35 minBit rate mode : VariableBit rate : 128 kb/sMaximum bit rate : 135 kb/sChannel(s) : 2 channelsChannel positions : Front: L RSampling rate : 48.0 kHzFrame rate : 46.875 FPS (1024 spf)Compression mode : LossyStream size : 87.4 MiB (4%)Language : GermanEncoded date : UTC 2017-05-09 07:57:01Tagged date : UTC 2017-05-09 09:36:45

Audio #3ID : 4Format : AACFormat/Info : Advanced Audio CodecFormat profile : LCCodec ID : 40Duration : 1 h 35 minBit rate mode : VariableBit rate : 128 kb/sMaximum bit rate : 135 kb/sChannel(s) : 2 channelsChannel positions : Front: L RSampling rate : 48.0 kHzFrame rate : 46.875 FPS (1024 spf)Compression mode : LossyStream size : 87.4 MiB (4%)Language : EnglishEncoded date : UTC 2017-05-09 08:04:25Tagged date : UTC 2017-05-09 09:36:45

TextID : 5Format : Timed TextCodec ID : tx3gDuration : 1 h 35 minBit rate mode : VariableBit rate : 69 b/sStream size : 47.9 KiB (0%)Language : RussianForced : NoEncoded date : UTC 2017-05-09 09:36:44Tagged date : UTC 2017-05-09 09:36:45

Menu00:00:00.000 : 00:00:00.00000:06:33.226 : 00:06:33.22600:17:01.938 : 00:17:01.93800:20:01.826 : 00:20:01.82600:25:07.506 : 00:25:07.50600:33:13.658 : 00:33:13.65800:43:24.519 : 00:43:24.51900:47:55.539 : 00:47:55.53900:55:09.681 : 00:55:09.68101:04:19.272 : 01:04:19.27201:14:53.698 : 01:14:53.69801:21:11.575 : 01:21:11.57501:31:52.048 : 01:31:52.048
</div><!--/post_body-->

Трекер:  [ 13-Май-2017 11:00 ]

  

Скачать .torrent

Размер .torrent файла 10 KB


Размер: 2.02 GB
Хэш (hash) релиза: db662162dc66e1c2688d9fafe5881e50b4011736

Еще никто не оставлял запись к записи скачать торрент [VIDEO] Играй до смерти Truth or Dare . Будь первым!

!Обратная связь