[share_ebook] Energie aus Biomasse: Grundlagen, Techniken und Verfahren | Mia Tuean | Main Badhiya Tu Bhi Badhiya From Sanju Single

Скачать через торрент [VIDEO] Драгоценный подарок бесплатно русская версия torrent активатор

Статистика раздачи
Размер:  638 MB   |    Зарегистрирован:  1 год 2 месяца   |    .torrent скачан:  27 раз   |   
Раздают:  1  
   
загрузка...
 
Автор Сообщение

Galfimbul

avatar Galfimbul


Драгоценный подарок<hr class="post-hr">
<hr class="post-hr">Год выпуска: 1956
Страна: СССР
Жанр: комедия, музыкальный
Продолжительность: 01:13:18
Перевод: не требуется
Cубтитры: нет<hr class="post-hr">Режиссер: Александр Роу<hr class="post-hr">В ролях: Владимир Володин, Галина Степанова, Мария Миронова, Вера Орлова, Рина Зелёная, Лилия Лазукова, Александр Лебедев, Лев Фричинский, Михаил Кузнецов, Георгий Милляр, Александр Тимонтаев, Эммануил Геллер (озвучание - Георгий Вицин), Татул Дилакян, Иван Рыжов, Николай Горлов, Аркадий Цинман, Александр Жуков, Владислав Баландин, Элеонора Прохницкая, Михаил Щербаков, Николай Блащук, Эль Трактовенко, Анатолий Иванов .<hr class="post-hr">Описание: Оригинальный подарок ко дню рождения решил преподнести заядлому рыбаку Карпу Трофимовичу его племянник — во время конкурса рыболовов он подцепил дяде на крючок огромную щуку.<hr class="post-hr"> Релиз группы <hr class="post-hr">Качество: SATRip / рип с DVB
Формат: MP4
Видео кодек: H.264
Аудио кодек: AAC
Видео: 468x360 AR:4/3 1080 kbps 25 fps
Аудио: 2ch 48 kHz 128 kbps<hr class="post-hr">
avs [info]: 468x360p 1:1 @ 25/1 fps (cfr)
x264 [info]: using SAR=1/1
x264 [info]: using cpu capabilities: MMX2 SSE2Fast SSSE3 SSE4.2 AVX FMA3 AVX2 LZCNT BMI2
x264 [info]: profile High, level 4.1

x264 [info]: frame I:681 Avg QP:23.74 size: 25947
x264 [info]: frame P:22210 Avg QP:26.70 size: 10013
x264 [info]: frame B:87062 Avg QP:28.61 size: 4063
x264 [info]: consecutive B-frames: 0.8% 0.7% 4.1% 24.9% 21.7% 39.8% 4.6% 1.7% 1.7%
x264 [info]: mb I I16..4: 1.0% 81.5% 17.6%
x264 [info]: mb P I16..4: 0.1% 9.7% 1.4% P16..4: 32.2% 38.7% 15.8% 1.7% 0.1% skip: 0.3%
x264 [info]: mb B I16..4: 0.0% 1.6% 0.2% B16..8: 40.0% 23.6% 4.4% direct: 8.9% skip:21.3% L0:40.2% L1:43.2% BI:16.5%
x264 [info]: 8x8 transform intra:85.3% inter:61.3%
x264 [info]: direct mvs spatial:97.9% temporal:2.1%
x264 [info]: coded y,uvDC,uvAC intra: 94.0% 72.9% 32.0% inter: 40.7% 15.8% 2.6%
x264 [info]: i16 v,h,dc,p: 25% 31% 3% 41%
x264 [info]: i8 v,h,dc,ddl,ddr,vr,hd,vl,hu: 13% 9% 4% 10% 14% 14% 13% 11% 11%
x264 [info]: i4 v,h,dc,ddl,ddr,vr,hd,vl,hu: 14% 23% 3% 7% 11% 13% 10% 10% 9%
x264 [info]: i8c dc,h,v,p: 32% 28% 22% 18%
x264 [info]: Weighted P-Frames: Y:44.3% UV:13.0%
x264 [info]: ref P L0: 40.4% 13.0% 15.4% 8.3% 5.7% 4.8% 4.1% 2.5% 2.3% 2.4% 1.0% 0.0%
x264 [info]: ref B L0: 78.9% 9.7% 4.0% 2.2% 1.7% 1.5% 1.2% 0.6% 0.3%
x264 [info]: ref B L1: 96.1% 3.9%
x264 [info]: kb/s:1080.01

encoded 109953 frames, 21.91 fps, 1080.01 kb/s
GeneralComplete name : D:\Torrents\Драгоценный подарок.1956.SATRip.x264.640x.rip by Frost O.S.mp4Format : MPEG-4Format profile : Base MediaCodec ID : isom (isom/avc1)File size : 638 MiBDuration : 1 h 13 minOverall bit rate mode : VariableOverall bit rate : 1 216 kb/sMovie name : Драгоценный подарок 1956 SATRip x264 640x rip by Frost O SDirector : Александр РоуActor : Владимир Володин / Галина Степанова / Мария Миронова / Вера Орлова / Рина Зелёная / Лилия Лазукова / Александр Лебедев / Лев Фричинский / Михаил Кузнецов / Георгий Милляр / Александр Тимонтаев / Эммануил Геллер (озвучание - Георгий Вицин) / Татул Дилакян / Иван Рыжов / Николай Горлов / Аркадий Цинман / Александр Жуков / Владислав Баландин / Элеонора Прохницкая / Михаил Щербаков / Николай Блащук / Эль Трактовенко / Анатолий Иванов .Genre : ComedyContentType : Short FilmEncoded date : UTC 2017-05-10 17:42:17Tagged date : UTC 2017-05-10 17:43:22Writing application : MkvToMp4 version: 0.224 (x64)Cover : YesComment : rip by Frost O.SLongDescription : Оригинальный подарок ко дню рождения решил преподнести заядлому рыбаку Карпу Трофимовичу его племянник — во время конкурса рыболовов он подцепил дяде на крючок огромную щуку.

VideoID : 1Format : AVCFormat/Info : Advanced Video CodecFormat profile : [email protected] settings, CABAC : YesFormat settings, ReFrames : 10 framesCodec ID : avc1Codec ID/Info : Advanced Video CodingDuration : 1 h 13 minBit rate : 1 080 kb/sMaximum bit rate : 2 289 kb/sWidth : 468 pixelsHeight : 360 pixelsDisplay aspect ratio : 4:3Frame rate mode : ConstantFrame rate : 25.000 FPSColor space : YUVChroma subsampling : 4:2:0Bit depth : 8 bitsScan type : ProgressiveBits/(Pixel*Frame) : 0.256Stream size : 566 MiB (89%)Writing library : x264 core 148 r2744 b97ae06Encoding settings : cabac=1 / ref=10 / deblock=1:-1:-1 / analyse=0x3:0x133 / me=umh / subme=11 / psy=1 / psy_rd=1.10:0.00 / mixed_ref=1 / me_range=48 / chroma_me=1 / trellis=2 / 8x8dct=1 / cqm=0 / deadzone=21,11 / fast_pskip=0 / chroma_qp_offset=-2 / threads=6 / lookahead_threads=1 / sliced_threads=0 / nr=0 / decimate=0 / interlaced=0 / bluray_compat=0 / constrained_intra=0 / bframes=8 / b_pyramid=2 / b_adapt=2 / b_bias=0 / direct=3 / weightb=1 / open_gop=0 / weightp=2 / keyint=250 / keyint_min=25 / scenecut=40 / intra_refresh=0 / rc=2pass / mbtree=0 / bitrate=1080 / ratetol=1.0 / qcomp=0.60 / qpmin=0 / qpmax=69 / qpstep=4 / cplxblur=20.0 / qblur=0.5 / ip_ratio=1.40 / pb_ratio=1.30 / aq=1:1.00Language : EnglishEncoded date : UTC 2017-05-10 17:42:17Tagged date : UTC 2017-05-10 17:42:45Color range : LimitedColor primaries : BT.601 PALTransfer characteristics : BT.470 System B, BT.470 System GMatrix coefficients : BT.601

AudioID : 2Format : AACFormat/Info : Advanced Audio CodecFormat profile : LCCodec ID : 40Duration : 1 h 13 minBit rate mode : VariableBit rate : 128 kb/sMaximum bit rate : 131 kb/sChannel(s) : 2 channelsChannel positions : Front: L RSampling rate : 48.0 kHzFrame rate : 46.875 FPS (1024 spf)Compression mode : LossyStream size : 67.1 MiB (11%)Language : RussianDefault : YesAlternate group : 1Encoded date : UTC 2017-05-10 17:42:36Tagged date : UTC 2017-05-10 17:42:45


Трекер:  [ 10-Май-2017 19:30 ]

  

Скачать .torrent

Размер .torrent файла 13 KB


Размер: 638 MB
Хэш (hash) релиза: 0a823998ec2c8b8c55e5d378b6e0bec14937d47a

Еще никто не оставлял запись к записи скачать торрент [VIDEO] Драгоценный подарок . Будь первым!

!Обратная связь