Fernando Becerril | Colmillo blanco | Детский / Семейный

Скачать через торрент [VIDEO] Майская ночь, или Утопленница бесплатно русская версия torrent активатор

Статистика раздачи
Размер:  480 MB   |    Зарегистрирован:  1 год 2 месяца   |    .torrent скачан:  28 раз   |   
Раздают:  1  
   
загрузка...
 
Автор Сообщение

Galfimbul

avatar Galfimbul


Майская ночь, или Утопленница<hr class="post-hr">
<hr class="post-hr">Год выпуска: 1952
Страна: СССР
Жанр: фэнтези, мелодрама, комедия, мистика, фольклор, экранизация, сказка
Продолжительность: 00:55:13
Перевод: не требуется
Cубтитры: нет<hr class="post-hr">Режиссер: Александр Роу<hr class="post-hr">В ролях: Евгений Егиазаров, Николай Досенко, Татьяна Конюхова, Лилия Юдина, Александр Хвыля, Эмма Цесарская, Антон Дунайский, Георгий Милляр, Георгий Гумилевский, Г. Нелидов, Галина Григорьева, Василий Бокарев, Александр Жуков .<hr class="post-hr">Описание: Мистическая фантазия по одноименной повести Н. В. Гоголя.
Сын упрямого сельского головы никак не может получить отцовского согласия на венчание с простой казачкой. На помощь парубку неожиданно приходит «нечистая сила»…<hr class="post-hr"> Релиз группы <hr class="post-hr">Качество: DVDRip / рип с DVD5 "Союз Видео"
Формат: MP4
Видео кодек: H.264
Аудио кодек: AAC
Видео: 464x360 AR:1.29 1080 kbps 25 fps
Аудио: 2ch 48 kHz 128 kbps<hr class="post-hr">
avs [info]: 464x360p 1:1 @ 25/1 fps (cfr)
x264 [info]: using SAR=1/1
x264 [info]: using cpu capabilities: MMX2 SSE2Fast SSSE3 SSE4.2 AVX FMA3 AVX2 LZCNT BMI2
x264 [info]: profile High, level 4.1

x264 [info]: frame I:486 Avg QP:18.18 size: 27156
x264 [info]: frame P:16672 Avg QP:21.34 size: 10362
x264 [info]: frame B:65686 Avg QP:23.50 size: 3980
x264 [info]: consecutive B-frames: 0.9% 1.4% 5.3% 24.4% 17.4% 31.8% 8.2% 6.0% 2.8% 1.6%
x264 [info]: mb I I16..4: 0.8% 82.1% 17.1%
x264 [info]: mb P I16..4: 0.0% 5.8% 1.0% P16..4: 32.8% 40.9% 17.2% 1.9% 0.2% skip: 0.1%
x264 [info]: mb B I16..4: 0.0% 0.7% 0.1% B16..8: 38.0% 24.4% 4.2% direct:11.6% skip:21.0% L0:41.4% L1:38.8% BI:19.8%
x264 [info]: 8x8 transform intra:84.5% inter:57.3%
x264 [info]: direct mvs spatial:96.4% temporal:3.6%
x264 [info]: coded y,uvDC,uvAC intra: 96.5% 91.6% 68.7% inter: 41.4% 30.5% 8.6%
x264 [info]: i16 v,h,dc,p: 23% 14% 7% 56%
x264 [info]: i8 v,h,dc,ddl,ddr,vr,hd,vl,hu: 14% 6% 4% 10% 14% 15% 12% 14% 11%
x264 [info]: i4 v,h,dc,ddl,ddr,vr,hd,vl,hu: 15% 4% 2% 9% 15% 18% 12% 14% 10%
x264 [info]: i8c dc,h,v,p: 42% 19% 21% 18%
x264 [info]: Weighted P-Frames: Y:53.6% UV:24.0%
x264 [info]: ref P L0: 36.7% 11.4% 14.3% 9.1% 6.4% 5.9% 4.5% 2.9% 2.5% 2.5% 2.3% 1.5% 0.0%
x264 [info]: ref B L0: 71.6% 11.4% 5.4% 3.3% 2.4% 2.1% 1.6% 1.1% 0.7% 0.4%
x264 [info]: ref B L1: 94.9% 5.1%
x264 [info]: kb/s:1079.99

encoded 82844 frames, 22.06 fps, 1080.00 kb/s
GeneralComplete name : D:\Torrents\Майская ночь, или Утопленница.1952.DVDRip.x264.640x.rip by Frost O.S.mp4Format : MPEG-4Format profile : Base MediaCodec ID : isom (isom/avc1)File size : 480 MiBDuration : 55 min 13 sOverall bit rate mode : VariableOverall bit rate : 1 216 kb/sMovie name : Майская ночь, или Утопленница 1952 DVDRip x264 640x rip by Frost O SDirector : Александр РоуActor : Евгений Егиазаров / Николай Досенко / Татьяна Конюхова / Лилия Юдина / Александр Хвыля / Эмма Цесарская / Антон Дунайский / Георгий Милляр / Георгий Гумилевский / Г. Нелидов / Галина Григорьева / Василий Бокарев / Александр Жуков .ContentType : Short FilmEncoded date : UTC 2017-05-10 15:28:10Tagged date : UTC 2017-05-10 15:29:28Writing application : MkvToMp4 version: 0.224 (x64)Cover : YesLongDescription : Мистическая фантазия по одноименной повести Н. В. Гоголя. Сын упрямого сельского головы никак не может получить отцовского согласия на венчание с простой казачкой. На помощь парубку неожиданно приходит «нечистая сила»…

VideoID : 1Format : AVCFormat/Info : Advanced Video CodecFormat profile : [email protected] settings, CABAC : YesFormat settings, ReFrames : 11 framesCodec ID : avc1Codec ID/Info : Advanced Video CodingDuration : 55 min 13 sBit rate : 1 080 kb/sMaximum bit rate : 2 590 kb/sWidth : 464 pixelsHeight : 360 pixelsDisplay aspect ratio : 1.289Frame rate mode : ConstantFrame rate : 25.000 FPSColor space : YUVChroma subsampling : 4:2:0Bit depth : 8 bitsScan type : ProgressiveBits/(Pixel*Frame) : 0.259Stream size : 427 MiB (89%)Writing library : x264 core 148 r2744 b97ae06Encoding settings : cabac=1 / ref=11 / deblock=1:-1:-1 / analyse=0x3:0x133 / me=umh / subme=11 / psy=1 / psy_rd=1.05:0.00 / mixed_ref=1 / me_range=48 / chroma_me=1 / trellis=2 / 8x8dct=1 / cqm=0 / deadzone=21,11 / fast_pskip=0 / chroma_qp_offset=-2 / threads=6 / lookahead_threads=1 / sliced_threads=0 / nr=0 / decimate=0 / interlaced=0 / bluray_compat=0 / constrained_intra=0 / bframes=9 / b_pyramid=2 / b_adapt=2 / b_bias=0 / direct=3 / weightb=1 / open_gop=0 / weightp=2 / keyint=250 / keyint_min=25 / scenecut=40 / intra_refresh=0 / rc=2pass / mbtree=0 / bitrate=1080 / ratetol=1.0 / qcomp=0.65 / qpmin=0 / qpmax=69 / qpstep=4 / cplxblur=20.0 / qblur=0.5 / ip_ratio=1.40 / pb_ratio=1.30 / aq=1:0.90Language : EnglishEncoded date : UTC 2017-05-10 15:28:10Tagged date : UTC 2017-05-10 15:28:36Color range : LimitedColor primaries : BT.601 PALTransfer characteristics : BT.470 System B, BT.470 System GMatrix coefficients : BT.601

AudioID : 2Format : AACFormat/Info : Advanced Audio CodecFormat profile : LCCodec ID : 40Duration : 55 min 13 sBit rate mode : VariableBit rate : 128 kb/sMaximum bit rate : 130 kb/sChannel(s) : 2 channelsChannel positions : Front: L RSampling rate : 48.0 kHzFrame rate : 46.875 FPS (1024 spf)Compression mode : LossyStream size : 50.6 MiB (11%)Language : RussianDefault : YesAlternate group : 1Encoded date : UTC 2017-05-10 15:28:21Tagged date : UTC 2017-05-10 15:28:36


Трекер:  [ 10-Май-2017 17:30 ]

  

Скачать .torrent

Размер .torrent файла 19 KB


Размер: 480 MB
Хэш (hash) релиза: 38128fa242657e111b580feccb24a1fc301b07c9

Еще никто не оставлял запись к записи скачать торрент [VIDEO] Майская ночь, или Утопленница . Будь первым!

!Обратная связь