FlightCom – May 2018 | www movcr com Half Girlfriend 2017 720p NF WEBHD Untouched x264 AVC DD5 1 ESubs 2GB Kingmaker mkv | Pray For The Wicked

Скачать через торрент [VIDEO] Вечера на хуторе близ Диканьки бесплатно русская версия torrent активатор

Статистика раздачи
Размер:  464 MB   |    Зарегистрирован:  1 год 2 месяца   |    .torrent скачан:  32 раза   |   
Раздают:  1  
   
загрузка...
 
Автор Сообщение

Galfimbul

avatar Galfimbul


Вечера на хуторе близ Диканьки<hr class="post-hr">
<hr class="post-hr">Год выпуска: 1961
Страна: СССР
Жанр: фэнтези, мелодрама, комедия, экранизация, сказка
Продолжительность: 01:06:00
Перевод: не требуется
Cубтитры: нет<hr class="post-hr">Режиссер: Александр Роу<hr class="post-hr">В ролях: Александр Хвыля, Л.Мызникова, Юрий Тавров, Людмила Хитяева, Сергей Мартинсон, Анатолий Кубацкий, Вера Алтайская, Дмитрий Капка, Николай Яковченко, М.Сидорчук, А.Радунский, Георгий Милляр, Алексей Смирнов, Михаил Трояновский, Александр Демьяненко .<hr class="post-hr">Описание: Веселая история про то, как в рождественскую ночь в украинском селе всех попутал бес и как могучему кузнецу Вакуле удалось одолеть нечистую силу и добыть для своей невесты царские черевички. Экранизация повести Н. В. Гоголя «Ночь перед Рождеством».<hr class="post-hr"> Релиз группы <hr class="post-hr">Качество: DVDRip / рип с DVD5 "Крупный План"
Формат: MP4
Видео кодек: H.264
Аудио кодек: AAC
Видео: 480x360 AR:1.33 847 kbps 25 fps
Аудио: 2ch 48 kHz 128 kbps<hr class="post-hr">
avs [info]: 480x360p 1:1 @ 25/1 fps (cfr)
x264 [info]: using SAR=1/1
x264 [info]: using cpu capabilities: MMX2 SSE2Fast SSSE3 SSE4.2 AVX FMA3 AVX2 LZCNT BMI2
x264 [info]: profile High, level 4.1

x264 [info]: frame I:791 Avg QP:15.65 size: 29536
x264 [info]: frame P:24605 Avg QP:18.69 size: 8718
x264 [info]: frame B:73604 Avg QP:21.21 size: 2464
x264 [info]: consecutive B-frames: 2.5% 2.8% 11.2% 43.6% 17.6% 18.3% 2.7% 1.3%
x264 [info]: mb I I16..4: 1.4% 75.7% 22.9%
x264 [info]: mb P I16..4: 0.2% 6.3% 1.2% P16..4: 33.0% 36.3% 16.3% 2.9% 0.5% skip: 3.3%
x264 [info]: mb B I16..4: 0.0% 0.7% 0.1% B16..8: 30.6% 18.2% 3.6% direct: 5.4% skip:41.3% L0:36.9% L1:41.7% BI:21.4%
x264 [info]: 8x8 transform intra:79.8% inter:54.5%
x264 [info]: direct mvs spatial:97.5% temporal:2.5%
x264 [info]: coded y,uvDC,uvAC intra: 92.2% 80.7% 55.8% inter: 23.8% 17.7% 6.0%
x264 [info]: i16 v,h,dc,p: 23% 12% 6% 59%
x264 [info]: i8 v,h,dc,ddl,ddr,vr,hd,vl,hu: 12% 7% 6% 10% 14% 13% 13% 12% 14%
x264 [info]: i4 v,h,dc,ddl,ddr,vr,hd,vl,hu: 13% 6% 4% 9% 15% 15% 13% 12% 13%
x264 [info]: i8c dc,h,v,p: 36% 26% 21% 17%
x264 [info]: Weighted P-Frames: Y:28.5% UV:7.3%
x264 [info]: ref P L0: 48.1% 12.2% 14.5% 6.2% 4.9% 3.9% 3.5% 2.0% 2.0% 2.0% 0.7% 0.0%
x264 [info]: ref B L0: 83.6% 7.8% 3.2% 1.7% 1.2% 1.0% 0.8% 0.5% 0.3%
x264 [info]: ref B L1: 97.0% 3.0%
x264 [info]: kb/s:846.96

encoded 99000 frames, 29.37 fps, 846.96 kb/s
GeneralComplete name : D:\Torrents\Вечера на хуторе близ Диканьки.1961.DVDRip.x264.640x.rip by Frost O.S.mp4Format : MPEG-4Format profile : Base MediaCodec ID : isom (isom/avc1)File size : 464 MiBDuration : 1 h 6 minOverall bit rate mode : VariableOverall bit rate : 983 kb/sMovie name : Вечера на хуторе близ Диканьки 1961 DVDRip x264 640x rip by Frost O SDirector : Александр РоуActor : Александр Хвыля / Л.Мызникова / Юрий Тавров / Людмила Хитяева / Сергей Мартинсон / Анатолий Кубацкий / Вера Алтайская / Дмитрий Капка / Николай Яковченко / М.Сидорчук / А.Радунский / Георгий Милляр / Алексей Смирнов / Михаил Трояновский / Александр Демьяненко .ContentType : Short FilmEncoded date : UTC 2017-05-10 13:43:42Tagged date : UTC 2017-05-10 13:44:16Writing application : MkvToMp4 version: 0.224 (x64)Cover : YesComment : rip by Frost O.SLongDescription : Веселая история про то, как в рождественскую ночь в украинском селе всех попутал бес и как могучему кузнецу Вакуле удалось одолеть нечистую силу и добыть для своей невесты царские черевички. Экранизация повести Н. В. Гоголя «Ночь перед Рождеством».

VideoID : 1Format : AVCFormat/Info : Advanced Video CodecFormat profile : [email protected] settings, CABAC : YesFormat settings, ReFrames : 10 framesCodec ID : avc1Codec ID/Info : Advanced Video CodingDuration : 1 h 6 minBit rate : 847 kb/sMaximum bit rate : 3 606 kb/sWidth : 480 pixelsHeight : 360 pixelsDisplay aspect ratio : 4:3Frame rate mode : ConstantFrame rate : 25.000 FPSColor space : YUVChroma subsampling : 4:2:0Bit depth : 8 bitsScan type : ProgressiveBits/(Pixel*Frame) : 0.196Stream size : 400 MiB (86%)Writing library : x264 core 148 r2744 b97ae06Encoding settings : cabac=1 / ref=10 / deblock=1:-1:-1 / analyse=0x3:0x133 / me=umh / subme=11 / psy=1 / psy_rd=1.00:0.00 / mixed_ref=1 / me_range=48 / chroma_me=1 / trellis=2 / 8x8dct=1 / cqm=0 / deadzone=21,11 / fast_pskip=0 / chroma_qp_offset=-2 / threads=6 / lookahead_threads=1 / sliced_threads=0 / nr=0 / decimate=0 / interlaced=0 / bluray_compat=0 / constrained_intra=0 / bframes=7 / b_pyramid=2 / b_adapt=2 / b_bias=0 / direct=3 / weightb=1 / open_gop=0 / weightp=2 / keyint=250 / keyint_min=25 / scenecut=40 / intra_refresh=0 / rc=2pass / mbtree=0 / bitrate=847 / ratetol=1.0 / qcomp=0.75 / qpmin=0 / qpmax=69 / qpstep=4 / cplxblur=20.0 / qblur=0.5 / ip_ratio=1.40 / pb_ratio=1.30 / aq=1:0.80Language : EnglishEncoded date : UTC 2017-05-10 13:43:42Tagged date : UTC 2017-05-10 13:43:54Color range : LimitedColor primaries : BT.601 PALTransfer characteristics : BT.470 System B, BT.470 System GMatrix coefficients : BT.601

AudioID : 2Format : AACFormat/Info : Advanced Audio CodecFormat profile : LCCodec ID : 40Duration : 1 h 6 minBit rate mode : VariableBit rate : 128 kb/sMaximum bit rate : 135 kb/sChannel(s) : 2 channelsChannel positions : Front: L RSampling rate : 48.0 kHzFrame rate : 46.875 FPS (1024 spf)Compression mode : LossyStream size : 60.4 MiB (13%)Language : RussianDefault : YesAlternate group : 1Encoded date : UTC 2017-05-10 13:43:51Tagged date : UTC 2017-05-10 13:43:54


Трекер:  [ 10-Май-2017 16:00 ]

  

Скачать .torrent

Размер .torrent файла 18 KB


Размер: 464 MB
Хэш (hash) релиза: 004b12cf1a9d8e5132a76053b5c94d00d5e747be

Еще никто не оставлял запись к записи скачать торрент [VIDEO] Вечера на хуторе близ Диканьки . Будь первым!

!Обратная связь