Young Sheldon - 1ª Temporada - Dublado + Legendado
Marvels Agents of S.H.I.E..

Скачать через торрент [VIDEO] Конек-Горбунок бесплатно русская версия torrent активатор

Статистика раздачи
Размер:  661 MB   |    Зарегистрирован:  11 месяцев   |    .torrent скачан:  27 раз   |   
Раздают:  1  
   
загрузка...
 
Автор Сообщение

Galfimbul

avatar Galfimbul


Конек-Горбунок<hr class="post-hr">
<hr class="post-hr">Год выпуска: 1941
Страна: СССР
Жанр: детский, семейный, сказка, экранизация
Продолжительность: 01:16:00
Перевод: не требуется
Cубтитры: нет<hr class="post-hr">Режиссер: Александр Роу<hr class="post-hr">В ролях: Пётр Алейников, Марина Ковалёва, Вениамин Гут, Георгий Милляр, Лев Потёмкин, Н. Урусова, Михаил Трояновский, Анатолий Жуков (II), Николай Горлов, Александр Тимонтаев...<hr class="post-hr">Описание: Великолепный детский фильм, поставленный по мотивам всеми любимой сказки П. Ершова. В тридесятом царстве жил-был царь. И задумал тот царь взять в жены девушку-красу. А чтобы заполучить ее, послал за ней Иванушку, крестьянского сына… А если не выполнит Иван царского задания, не сносить тогда ему головы. Тут-то и пришел на помощь к Иванушке сказочный Конек-Горбунок…<hr class="post-hr"> Релиз группы <hr class="post-hr">Качество: DVDRip / рип с DVD5 (Лицензия) "Союз Видео"
Формат: MP4
Видео кодек: H.264
Аудио кодек: AAC
Видео: 468x360 AR:4/3 1080 kbps 25 fps
Аудио: 2ch 48 kHz 128 kbps<hr class="post-hr">
avs [info]: 468x360p 1:1 @ 25/1 fps (cfr)
x264 [info]: using SAR=1/1
x264 [info]: using cpu capabilities: MMX2 SSE2Fast SSSE3 SSE4.2 AVX FMA3 AVX2 LZCNT BMI2
x264 [info]: profile High, level 4.1

x264 [info]: frame I:705 Avg QP:20.11 size: 24069
x264 [info]: frame P:20682 Avg QP:23.11 size: 10174
x264 [info]: frame B:92628 Avg QP:24.86 size: 4192
x264 [info]: consecutive B-frames: 0.9% 0.6% 3.0% 18.4% 14.2% 35.3% 8.5% 6.1% 4.8% 2.4% 2.9% 2.9%
x264 [info]: mb I I16..4: 1.4% 85.5% 13.1%
x264 [info]: mb P I16..4: 0.2% 10.7% 1.4% P16..4: 32.5% 39.5% 14.3% 1.2% 0.1% skip: 0.1%
x264 [info]: mb B I16..4: 0.0% 1.1% 0.2% B16..8: 42.6% 25.6% 4.4% direct: 8.5% skip:17.6% L0:49.4% L1:40.6% BI:10.0%
x264 [info]: 8x8 transform intra:86.2% inter:64.7%
x264 [info]: direct mvs spatial:96.1% temporal:3.9%
x264 [info]: coded y,uvDC,uvAC intra: 95.4% 88.1% 51.1% inter: 41.4% 39.6% 5.1%
x264 [info]: i16 v,h,dc,p: 34% 17% 3% 45%
x264 [info]: i8 v,h,dc,ddl,ddr,vr,hd,vl,hu: 11% 6% 5% 10% 16% 14% 14% 11% 12%
x264 [info]: i4 v,h,dc,ddl,ddr,vr,hd,vl,hu: 15% 18% 2% 7% 13% 14% 11% 10% 10%
x264 [info]: i8c dc,h,v,p: 34% 25% 19% 21%
x264 [info]: Weighted P-Frames: Y:44.2% UV:25.9%
x264 [info]: ref P L0: 34.8% 10.8% 15.2% 9.1% 7.0% 5.8% 5.0% 3.1% 2.9% 2.6% 2.5% 1.1% 0.0%
x264 [info]: ref B L0: 57.1% 14.1% 8.9% 5.2% 4.1% 3.6% 3.1% 2.1% 1.3% 0.5%
x264 [info]: ref B L1: 91.0% 9.0%
x264 [info]: kb/s:1079.94

encoded 114015 frames, 21.86 fps, 1079.95 kb/s
GeneralComplete name : D:\Torrents\Конек-Горбунок.1941.DVDRip.x264.640x.rip by Frost O.S.mp4Format : MPEG-4Format profile : Base MediaCodec ID : isom (isom/avc1)File size : 661 MiBDuration : 1 h 16 minOverall bit rate mode : VariableOverall bit rate : 1 216 kb/sMovie name : Конек-Горбунок 1941 DVDRip x264 640x rip by Frost O SDirector : Александр РоуActor : Пётр Алейников / Марина Ковалёва / Вениамин Гут / Георгий Милляр / Лев Потёмкин / Н. Урусова / Михаил Трояновский / Анатолий Жуков (II) / Николай Горлов / Александр Тимонтаев...Genre : Children'sContentType : Short FilmEncoded date : UTC 2017-05-10 12:04:23Tagged date : UTC 2017-05-10 12:06:06Writing application : MkvToMp4 version: 0.224 (x64)Cover : YesComment : rip by Frost O.SLongDescription : Великолепный детский фильм, поставленный по мотивам всеми любимой сказки П. Ершова. В тридесятом царстве жил-был царь. И задумал тот царь взять в жены девушку-красу. А чтобы заполучить ее, послал за ней Иванушку, крестьянского сына… А если не выполнит Иван царского задания, не сносить тогда ему головы. Тут-то и пришел на помощь к Иванушке сказочный Конек-Горбунок…

VideoID : 1Format : AVCFormat/Info : Advanced Video CodecFormat profile : [email protected] settings, CABAC : YesFormat settings, ReFrames : 11 framesCodec ID : avc1Codec ID/Info : Advanced Video CodingDuration : 1 h 16 minBit rate : 1 080 kb/sMaximum bit rate : 4 155 kb/sWidth : 468 pixelsHeight : 360 pixelsDisplay aspect ratio : 4:3Frame rate mode : ConstantFrame rate : 25.000 FPSColor space : YUVChroma subsampling : 4:2:0Bit depth : 8 bitsScan type : ProgressiveBits/(Pixel*Frame) : 0.256Stream size : 587 MiB (89%)Writing library : x264 core 148 r2744 b97ae06Encoding settings : cabac=1 / ref=11 / deblock=1:-1:-1 / analyse=0x3:0x133 / me=umh / subme=11 / psy=1 / psy_rd=1.00:0.00 / mixed_ref=1 / me_range=48 / chroma_me=1 / trellis=2 / 8x8dct=1 / cqm=0 / deadzone=21,11 / fast_pskip=0 / chroma_qp_offset=-2 / threads=6 / lookahead_threads=1 / sliced_threads=0 / nr=0 / decimate=0 / interlaced=0 / bluray_compat=0 / constrained_intra=0 / bframes=11 / b_pyramid=2 / b_adapt=2 / b_bias=0 / direct=3 / weightb=1 / open_gop=0 / weightp=2 / keyint=250 / keyint_min=25 / scenecut=40 / intra_refresh=0 / rc=2pass / mbtree=0 / bitrate=1080 / ratetol=1.0 / qcomp=0.65 / qpmin=0 / qpmax=69 / qpstep=4 / cplxblur=20.0 / qblur=0.5 / ip_ratio=1.40 / pb_ratio=1.30 / aq=1:0.90Language : EnglishEncoded date : UTC 2017-05-10 12:04:23Tagged date : UTC 2017-05-10 12:05:16Color range : LimitedColor primaries : BT.601 PALTransfer characteristics : BT.470 System B, BT.470 System GMatrix coefficients : BT.601

AudioID : 2Format : AACFormat/Info : Advanced Audio CodecFormat profile : LCCodec ID : 40Duration : 1 h 16 minBit rate mode : VariableBit rate : 128 kb/sMaximum bit rate : 135 kb/sChannel(s) : 2 channelsChannel positions : Front: L RSampling rate : 48.0 kHzFrame rate : 46.875 FPS (1024 spf)Compression mode : LossyStream size : 69.6 MiB (11%)Language : RussianDefault : YesAlternate group : 1Encoded date : UTC 2017-05-10 12:04:53Tagged date : UTC 2017-05-10 12:05:16


Трекер:  [ 10-Май-2017 14:30 ]

  

Скачать .torrent

Размер .torrent файла 13 KB


Размер: 661 MB
Хэш (hash) релиза: 1131369fb458c17ca299a587743e74e63dfcb45b

Еще никто не оставлял запись к записи скачать торрент [VIDEO] Конек-Горбунок . Будь первым!

!Обратная связь