Прожекторперисхилтон [эфир от 04.03] (2017) HDTVRip | Révélations Urgences Absolues Les Pompiers De Haute Provence | Corel VideoStudio Ultimate 2018 v21

Скачать через торрент [VIDEO] Новые похождения Кота в сапогах бесплатно русская версия torrent активатор

Статистика раздачи
Размер:  726 MB   |    Зарегистрирован:  1 год 2 месяца   |    .torrent скачан:  33 раза   |   
Раздают:  1  
   
загрузка...
 
Автор Сообщение

Galfimbul

avatar Galfimbul


Новые похождения Кота в сапогах<hr class="post-hr">
<hr class="post-hr">Год выпуска: 1958
Страна: СССР
Жанр: детский, семейный, сказка
Продолжительность: 01:23:25
Перевод: не требуется
Cубтитры: нет<hr class="post-hr">Режиссер: Александр Роу<hr class="post-hr">В ролях: Мария Барабанова, Анатолий Кубацкий, Георгий Милляр, Тамара Носова, Степан Крюков и другие .<hr class="post-hr">Описание: Вместе с традиционными сказочными персонажами в картине действуют и обычные школьники, участвующие в школьном спектакле по сказке «Кот в сапогах».. . Любе приснился сон. Она, дочь шахматного короля, становится жертвой коварного заговора и похищена колдуньей. На ее поиски отправляется сын мельника Ваня и его друг — волшебный кот. Много трудностей пришлось им испытать, пока они не достигли замка колдуньи и не спасли принцессу .<hr class="post-hr"> Релиз группы <hr class="post-hr">Качество: DVDRip / рип с DVD5 "Мастер Тейп"
Формат: MP4
Видео кодек: H.264
Аудио кодек: AAC
Видео: 466x360 AR:1.29 1080 kbps 25 fps
Аудио: 2ch 48 kHz 128 kbps<hr class="post-hr">
avs [info]: 466x360p 1:1 @ 25/1 fps (cfr)
x264 [info]: using SAR=1/1
x264 [info]: using cpu capabilities: MMX2 SSE2Fast SSSE3 SSE4.2 AVX FMA3 AVX2 LZCNT BMI2
x264 [info]: profile High, level 4.1

x264 [info]: frame I:796 Avg QP:19.07 size: 32427
x264 [info]: frame P:30502 Avg QP:22.24 size: 11048
x264 [info]: frame B:93827 Avg QP:23.95 size: 3335
x264 [info]: consecutive B-frames: 2.1% 1.7% 10.9% 44.1% 19.3% 19.0% 2.2% 0.7%
x264 [info]: mb I I16..4: 1.2% 73.7% 25.2%
x264 [info]: mb P I16..4: 0.2% 7.1% 1.7% P16..4: 31.3% 37.0% 18.5% 3.2% 0.5% skip: 0.6%
x264 [info]: mb B I16..4: 0.0% 0.9% 0.2% B16..8: 32.8% 24.4% 4.5% direct: 7.4% skip:29.6% L0:36.4% L1:37.0% BI:26.5%
x264 [info]: 8x8 transform intra:77.7% inter:57.2%
x264 [info]: direct mvs spatial:96.1% temporal:3.9%
x264 [info]: coded y,uvDC,uvAC intra: 92.7% 89.8% 65.8% inter: 34.2% 27.0% 10.5%
x264 [info]: i16 v,h,dc,p: 20% 40% 1% 40%
x264 [info]: i8 v,h,dc,ddl,ddr,vr,hd,vl,hu: 12% 11% 5% 9% 13% 12% 12% 12% 13%
x264 [info]: i4 v,h,dc,ddl,ddr,vr,hd,vl,hu: 14% 23% 3% 7% 11% 12% 11% 9% 11%
x264 [info]: i8c dc,h,v,p: 37% 23% 22% 18%
x264 [info]: Weighted P-Frames: Y:42.8% UV:23.9%
x264 [info]: ref P L0: 44.7% 14.7% 14.6% 7.2% 5.1% 4.2% 3.6% 2.3% 2.3% 1.2% 0.0%
x264 [info]: ref B L0: 83.2% 8.2% 3.2% 1.8% 1.3% 1.2% 0.8% 0.4%
x264 [info]: ref B L1: 97.6% 2.4%
x264 [info]: kb/s:1080.04

encoded 125125 frames, 16.12 fps, 1080.04 kb/s
GeneralComplete name : D:\Torrents\Новые похождения Кота в сапогах.1958.DVDRip.x264.640x.rip by Frost O.S.mp4Format : MPEG-4Format profile : Base MediaCodec ID : isom (isom/avc1)File size : 726 MiBDuration : 1 h 23 minOverall bit rate mode : VariableOverall bit rate : 1 216 kb/sMovie name : Новые похождения Кота в сапогах 1958 DVDRip x264 640x rip by Frost O SDirector : Александр РоуActor : Мария Барабанова / Анатолий Кубацкий / Георгий Милляр / Тамара Носова / Степан Крюков и другие .Genre : Children'sContentType : Short FilmEncoded date : UTC 2017-05-09 17:00:08Tagged date : UTC 2017-05-09 17:01:20Writing application : MkvToMp4 version: 0.224 (x64)Cover : YesComment : rip by Frost O.SLongDescription : Вместе с традиционными сказочными персонажами в картине действуют и обычные школьники, участвующие в школьном спектакле по сказке «Кот в сапогах».. . Любе приснился сон. Она, дочь шахматного короля, становится жертвой коварного заговора и похищена колдуньей. На ее поиски отправляется сын мельника Ваня и его друг — волшебный кот. Много трудностей пришлось им испытать, пока они не достигли замка колдуньи и не спасли принцессу .

VideoID : 1Format : AVCFormat/Info : Advanced Video CodecFormat profile : [email protected] settings, CABAC : YesFormat settings, ReFrames : 9 framesCodec ID : avc1Codec ID/Info : Advanced Video CodingDuration : 1 h 23 minBit rate : 1 080 kb/sMaximum bit rate : 3 561 kb/sWidth : 466 pixelsHeight : 360 pixelsDisplay aspect ratio : 1.294Frame rate mode : ConstantFrame rate : 25.000 FPSColor space : YUVChroma subsampling : 4:2:0Bit depth : 8 bitsScan type : ProgressiveBits/(Pixel*Frame) : 0.258Stream size : 644 MiB (89%)Writing library : x264 core 148 r2744 b97ae06Encoding settings : cabac=1 / ref=9 / deblock=1:-1:-1 / analyse=0x3:0x133 / me=umh / subme=11 / psy=1 / psy_rd=1.00:0.00 / mixed_ref=1 / me_range=48 / chroma_me=1 / trellis=2 / 8x8dct=1 / cqm=0 / deadzone=21,11 / fast_pskip=0 / chroma_qp_offset=-2 / threads=6 / lookahead_threads=1 / sliced_threads=0 / nr=0 / decimate=0 / interlaced=0 / bluray_compat=0 / constrained_intra=0 / bframes=7 / b_pyramid=2 / b_adapt=2 / b_bias=0 / direct=3 / weightb=1 / open_gop=0 / weightp=2 / keyint=250 / keyint_min=25 / scenecut=40 / intra_refresh=0 / rc=2pass / mbtree=0 / bitrate=1080 / ratetol=1.0 / qcomp=0.65 / qpmin=0 / qpmax=69 / qpstep=4 / cplxblur=20.0 / qblur=0.5 / ip_ratio=1.40 / pb_ratio=1.30 / aq=1:1.00Language : EnglishEncoded date : UTC 2017-05-09 17:00:08Tagged date : UTC 2017-05-09 17:00:35Color range : LimitedColor primaries : BT.601 PALTransfer characteristics : BT.470 System B, BT.470 System GMatrix coefficients : BT.601

AudioID : 2Format : AACFormat/Info : Advanced Audio CodecFormat profile : LCCodec ID : 40Duration : 1 h 23 minBit rate mode : VariableBit rate : 128 kb/sMaximum bit rate : 132 kb/sChannel(s) : 2 channelsChannel positions : Front: L RSampling rate : 48.0 kHzFrame rate : 46.875 FPS (1024 spf)Compression mode : LossyStream size : 76.4 MiB (11%)Language : RussianDefault : YesAlternate group : 1Encoded date : UTC 2017-05-09 17:00:20Tagged date : UTC 2017-05-09 17:00:35


Трекер:  [ 09-Май-2017 19:00 ]

  

Скачать .torrent

Размер .torrent файла 14 KB


Размер: 726 MB
Хэш (hash) релиза: 4f6bf344e33fcc851240e4335d57559d1a0848de

Еще никто не оставлял запись к записи скачать торрент [VIDEO] Новые похождения Кота в сапогах . Будь первым!

!Обратная связь