the moon 2009 | Juliet Stevenson | Marvel - The Punisher

Скачать через торрент [VIDEO] Огонь, вода и... медные трубы бесплатно русская версия torrent активатор

Статистика раздачи
Размер:  705 MB   |    Зарегистрирован:  1 год 2 месяца   |    .torrent скачан:  28 раз   |   
Раздают:  1  
   
загрузка...
 
Автор Сообщение

Galfimbul

avatar Galfimbul


Огонь, вода и... медные трубы<hr class="post-hr">
<hr class="post-hr">Год выпуска: 1967
Страна: СССР
Жанр: детский, семейный, сказка
Продолжительность: 01:20:58
Перевод: не требуется
Cубтитры: нет<hr class="post-hr">Режиссер: Александр Роу<hr class="post-hr">В ролях: Наталья Седых, Алексей Катышев, Георгий Милляр, Вера Алтайская, Лев Потемкин, Александр Хвыля, Анатолий Кубацкий, Леонид Харитонов, Муза Крепкогорская, Алексей Смирнов, Павел Павленко, Аркадий Цинман, Зоя Василькова, Михаил Пуговкин, Лидия Королева, Инга Будкевич, Татьяна Барышева, Тамара Носова, Андрей Файт, Анастасия Зуева, Валентин Брылеев, Петр Галаджев, Георгий Георгиу, Эдуард Изотов, Маргарита Корабельникова, Ирина Мурзаева, Николай Романов, Зинаида Воркуль, Зоя Толбузина, Ксения Козьмина, Е. Браверман, Вера Петрова .<hr class="post-hr">Описание: Герой фильма как-то отправляется в лес, чтобы жечь уголь. И там, на полянке, ему повстречалась Аленушка, которая пасла своего козленка. Но слуги Кащея Бессмертного похитили девушку прямо на глазах у Васи. В поисках возлюбленной Вася в буквальном смысле проходит сквозь огонь и воду. Но труднее всего устоять перед медными трубами, перед сверкающим сиянием славы….<hr class="post-hr"> Релиз группы <hr class="post-hr">Качество: DVDRip / рип с DVD9 (Лицензия) "Ruscico"
Формат: MP4
Видео кодек: H.264
Аудио кодек: AAC
Видео: 640x272 AR:2.35 1080 kbps 25 fps
Аудио: 2ch 48 kHz 128 kbps<hr class="post-hr">
avs [info]: 640x272p 1:1 @ 25/1 fps (cfr)
x264 [info]: using SAR=1/1
x264 [info]: using cpu capabilities: MMX2 SSE2Fast SSSE3 SSE4.2 AVX FMA3 AVX2 LZCNT BMI2
x264 [info]: profile High, level 4.1

x264 [info]: frame I:784 Avg QP:20.16 size: 29087
x264 [info]: frame P:28991 Avg QP:23.14 size: 10507
x264 [info]: frame B:91685 Avg QP:24.99 size: 3583
x264 [info]: consecutive B-frames: 2.3% 3.2% 9.2% 37.0% 16.8% 24.1% 4.2% 2.1% 0.9% 0.4%
x264 [info]: mb I I16..4: 0.6% 83.9% 15.5%
x264 [info]: mb P I16..4: 0.2% 11.8% 1.5% P16..4: 32.8% 35.5% 15.5% 1.8% 0.2% skip: 0.7%
x264 [info]: mb B I16..4: 0.0% 1.7% 0.2% B16..8: 32.5% 22.8% 4.3% direct: 8.0% skip:30.5% L0:36.1% L1:38.0% BI:25.9%
x264 [info]: 8x8 transform intra:87.3% inter:66.2%
x264 [info]: direct mvs spatial:96.1% temporal:3.9%
x264 [info]: coded y,uvDC,uvAC intra: 97.3% 87.3% 59.6% inter: 36.3% 31.6% 8.6%
x264 [info]: i16 v,h,dc,p: 16% 27% 4% 53%
x264 [info]: i8 v,h,dc,ddl,ddr,vr,hd,vl,hu: 10% 8% 3% 10% 14% 15% 13% 14% 13%
x264 [info]: i4 v,h,dc,ddl,ddr,vr,hd,vl,hu: 10% 9% 2% 8% 15% 17% 14% 13% 13%
x264 [info]: i8c dc,h,v,p: 34% 24% 21% 20%
x264 [info]: Weighted P-Frames: Y:49.1% UV:30.6%
x264 [info]: ref P L0: 46.0% 16.2% 13.4% 6.4% 4.3% 3.7% 2.9% 2.0% 1.9% 2.1% 1.1% 0.0%
x264 [info]: ref B L0: 83.7% 7.3% 3.0% 1.8% 1.3% 1.1% 0.9% 0.5% 0.3%
x264 [info]: ref B L1: 97.7% 2.3%
x264 [info]: kb/s:1080.01

encoded 121460 frames, 23.66 fps, 1080.01 kb/s
GeneralComplete name : D:\Torrents\Огонь, вода и... медные трубы.1967.DVDRip.x264.640x.rip by Frost O.S.mp4Format : MPEG-4Format profile : Base MediaCodec ID : isom (isom/avc1)File size : 705 MiBDuration : 1 h 20 minOverall bit rate mode : VariableOverall bit rate : 1 217 kb/sMovie name : Огонь, вода и медные трубы 1967 DVDRip x264 640x rip by Frost O SDirector : Александр РоуActor : Наталья Седых / Алексей Катышев / Георгий Милляр / Вера Алтайская / Лев Потемкин / Александр Хвыля / Анатолий Кубацкий / Леонид Харитонов / Муза Крепкогорская / Алексей Смирнов / Павел Павленко / Аркадий Цинман / Зоя Василькова / Михаил Пуговкин / Лидия Королева / Инга Будкевич / Татьяна Барышева / Тамара Носова / Андрей Файт / Анастасия Зуева / Валентин Брылеев / Петр Галаджев / Георгий Георгиу / Эдуард Изотов / Маргарита Корабельникова / Ирина Мурзаева / Николай Романов / Зинаида Воркуль / Зоя Толбузина / Ксения Козьмина / Е. Браверман / Вера Петрова .Genre : Children'sContentType : Short FilmEncoded date : UTC 2017-05-09 12:56:34Tagged date : UTC 2017-05-09 12:58:43Writing application : MkvToMp4 version: 0.224 (x64)Cover : YesComment : rip by Frost O.SLongDescription : Герой фильма как-то отправляется в лес, чтобы жечь уголь. И там, на полянке, ему повстречалась Аленушка, которая пасла своего козленка. Но слуги Кащея Бессмертного похитили девушку прямо на глазах у Васи. В поисках возлюбленной Вася в буквальном смысле проходит сквозь огонь и воду. Но труднее всего устоять перед медными трубами, перед сверкающим сиянием славы….

VideoID : 1Format : AVCFormat/Info : Advanced Video CodecFormat profile : [email protected] settings, CABAC : YesFormat settings, ReFrames : 10 framesCodec ID : avc1Codec ID/Info : Advanced Video CodingDuration : 1 h 20 minBit rate : 1 080 kb/sMaximum bit rate : 3 168 kb/sWidth : 640 pixelsHeight : 272 pixelsDisplay aspect ratio : 2.35:1Frame rate mode : ConstantFrame rate : 25.000 FPSColor space : YUVChroma subsampling : 4:2:0Bit depth : 8 bitsScan type : ProgressiveBits/(Pixel*Frame) : 0.248Stream size : 626 MiB (89%)Writing library : x264 core 148 r2744 b97ae06Encoding settings : cabac=1 / ref=10 / deblock=1:-1:-1 / analyse=0x3:0x133 / me=umh / subme=11 / psy=1 / psy_rd=0.90:0.00 / mixed_ref=1 / me_range=48 / chroma_me=1 / trellis=2 / 8x8dct=1 / cqm=0 / deadzone=21,11 / fast_pskip=0 / chroma_qp_offset=-2 / threads=6 / lookahead_threads=1 / sliced_threads=0 / nr=0 / decimate=0 / interlaced=0 / bluray_compat=0 / constrained_intra=0 / bframes=9 / b_pyramid=2 / b_adapt=2 / b_bias=0 / direct=3 / weightb=1 / open_gop=0 / weightp=2 / keyint=250 / keyint_min=25 / scenecut=40 / intra_refresh=0 / rc=2pass / mbtree=0 / bitrate=1080 / ratetol=1.0 / qcomp=0.70 / qpmin=0 / qpmax=69 / qpstep=4 / cplxblur=20.0 / qblur=0.5 / ip_ratio=1.40 / pb_ratio=1.30 / aq=1:1.00Language : EnglishEncoded date : UTC 2017-05-09 12:56:34Tagged date : UTC 2017-05-09 12:57:01Color range : LimitedColor primaries : BT.601 PALTransfer characteristics : BT.470 System B, BT.470 System GMatrix coefficients : BT.601

AudioID : 2Format : AACFormat/Info : Advanced Audio CodecFormat profile : LCCodec ID : 40Duration : 1 h 20 minBit rate mode : VariableBit rate : 128 kb/sMaximum bit rate : 132 kb/sChannel(s) : 2 channelsChannel positions : Front: L RSampling rate : 48.0 kHzFrame rate : 46.875 FPS (1024 spf)Compression mode : LossyStream size : 74.1 MiB (11%)Language : RussianDefault : YesAlternate group : 1Encoded date : UTC 2017-05-09 12:56:55Tagged date : UTC 2017-05-09 12:57:01


Трекер:  [ 09-Май-2017 15:00 ]

  

Скачать .torrent

Размер .torrent файла 14 KB


Размер: 705 MB
Хэш (hash) релиза: 23c75df799c14bc35eec3dc8d4f576809521ffad

Еще никто не оставлял запись к записи скачать торрент [VIDEO] Огонь, вода и... медные трубы . Будь первым!

!Обратная связь