lumion 7 | Read more | خواطر 11

Скачать через торрент [VIDEO] Марья-искусница бесплатно русская версия torrent активатор

Статистика раздачи
Размер:  652 MB   |    Зарегистрирован:  1 год 2 месяца   |    .torrent скачан:  31 раз   |   
Раздают:  1  
   
загрузка...
 
Автор Сообщение

Galfimbul

avatar Galfimbul


Марья-искусница<hr class="post-hr">
<hr class="post-hr">Год выпуска: 1960
Страна: СССР
Жанр: детский, семейный, сказка
Продолжительность: 01:14:55
Перевод: не требуется
Cубтитры: нет<hr class="post-hr">Режиссер: Александр Роу<hr class="post-hr">В ролях: Михаил Кузнецов, Нинель Мышкова, Витя Перевалов, Анатолий Кубацкий, Оля Хачапуридзе, Георгий Милляр, Вера Алтайская, Сергей Троицкий, Александр Хвыля, Николай Кондратьев, Андрей Алешин, Андрей Баранов, Валентин Брылеев, Николай Кузнецов, Константин Немоляев, Владимир Пицек, Константин Старостин, Михаил Щербаков .<hr class="post-hr">Описание: Закончилась у солдата служба, спешит солдат домой. Но по пути в родные места довелось ему сделать еще одно доброе дело: помочь мальчику Иванушке вызволить из плена матушку свою — Марью-Искусницу.

Уж как ни старался могущественный и хитрый царь Водокрут совсей своей придворной нечистью, так и не смог побороть солдатскую смекалку и доброе сердце…<hr class="post-hr"> Релиз группы <hr class="post-hr">Качество: DVDRip / рип с DVD9 (Лицензия) "Ruscico"
Формат: MP4
Видео кодек: H.264
Аудио кодек: AAC
Видео: 464x360 AR:1.29 1080 kbps 25 fps
Аудио: 2ch 48 kHz 128 kbps<hr class="post-hr">
avs [info]: 464x360p 1:1 @ 25/1 fps (cfr)
x264 [info]: using SAR=1/1
x264 [info]: using cpu capabilities: MMX2 SSE2Fast SSSE3 SSE4.2 AVX FMA3 AVX2 LZCNT BMI2
x264 [info]: profile High, level 4.1

x264 [info]: frame I:771 Avg QP:20.82 size: 32588
x264 [info]: frame P:23894 Avg QP:23.65 size: 10797
x264 [info]: frame B:87726 Avg QP:25.34 size: 3691
x264 [info]: consecutive B-frames: 1.3% 1.8% 5.8% 30.7% 18.4% 27.9% 6.7% 3.9% 2.0% 1.4%
x264 [info]: mb I I16..4: 0.4% 79.2% 20.3%
x264 [info]: mb P I16..4: 0.1% 7.8% 1.1% P16..4: 32.9% 35.6% 19.1% 2.5% 0.3% skip: 0.6%
x264 [info]: mb B I16..4: 0.0% 1.0% 0.1% B16..8: 34.2% 24.0% 4.6% direct:11.3% skip:24.8% L0:37.4% L1:32.6% BI:30.0%
x264 [info]: 8x8 transform intra:85.7% inter:67.5%
x264 [info]: direct mvs spatial:97.5% temporal:2.5%
x264 [info]: coded y,uvDC,uvAC intra: 97.1% 88.0% 60.9% inter: 44.0% 28.0% 7.4%
x264 [info]: i16 v,h,dc,p: 21% 30% 7% 42%
x264 [info]: i8 v,h,dc,ddl,ddr,vr,hd,vl,hu: 13% 9% 4% 9% 13% 13% 13% 12% 14%
x264 [info]: i4 v,h,dc,ddl,ddr,vr,hd,vl,hu: 14% 9% 3% 8% 14% 14% 14% 11% 13%
x264 [info]: i8c dc,h,v,p: 36% 24% 20% 20%
x264 [info]: Weighted P-Frames: Y:53.4% UV:27.1%
x264 [info]: ref P L0: 39.0% 16.0% 13.0% 8.1% 5.6% 5.0% 4.0% 2.8% 2.6% 2.6% 1.3% 0.0%
x264 [info]: ref B L0: 76.1% 9.9% 4.7% 2.8% 2.1% 1.8% 1.5% 0.8% 0.4%
x264 [info]: ref B L1: 95.8% 4.2%
x264 [info]: kb/s:1080.02

encoded 112391 frames, 25.12 fps, 1080.03 kb/s
GeneralComplete name : D:\Torrents\Марья-искусница.1960.DVDRip.x264.640x.rip by Frost O.S.mp4Format : MPEG-4Format profile : Base MediaCodec ID : isom (isom/avc1)File size : 652 MiBDuration : 1 h 14 minOverall bit rate mode : VariableOverall bit rate : 1 217 kb/sMovie name : Марья-искусница 1960 DVDRip x264 640x rip by Frost O SDirector : Александр РоуActor : Михаил Кузнецов / Нинель Мышкова / Витя Перевалов / Анатолий Кубацкий / Оля Хачапуридзе / Георгий Милляр / Вера Алтайская / Сергей Троицкий / Александр Хвыля / Николай Кондратьев / Андрей Алешин / Андрей Баранов / Валентин Брылеев / Николай Кузнецов / Константин Немоляев / Владимир Пицек / Константин Старостин / Михаил Щербаков .ContentType : Short FilmEncoded date : UTC 2017-05-09 10:24:51Tagged date : UTC 2017-05-09 10:25:20Writing application : MkvToMp4 version: 0.224 (x64)Cover : YesComment : rip by Frost O.SLongDescription : Закончилась у солдата служба, спешит солдат домой. Но по пути в родные места довелось ему сделать еще одно доброе дело: помочь мальчику Иванушке вызволить из плена матушку свою — Марью-Искусницу. / Уж как ни старался могущественный и хитрый царь Водокрут совсей своей придворной нечистью, так и не смог побороть солдатскую смекалку и доброе сердце…

VideoID : 1Format : AVCFormat/Info : Advanced Video CodecFormat profile : [email protected] settings, CABAC : YesFormat settings, ReFrames : 10 framesCodec ID : avc1Codec ID/Info : Advanced Video CodingDuration : 1 h 14 minBit rate : 1 080 kb/sMaximum bit rate : 2 766 kb/sWidth : 464 pixelsHeight : 360 pixelsDisplay aspect ratio : 1.289Frame rate mode : ConstantFrame rate : 25.000 FPSColor space : YUVChroma subsampling : 4:2:0Bit depth : 8 bitsScan type : ProgressiveBits/(Pixel*Frame) : 0.259Stream size : 579 MiB (89%)Writing library : x264 core 148 r2744 b97ae06Encoding settings : cabac=1 / ref=10 / deblock=1:-1:-1 / analyse=0x3:0x133 / me=umh / subme=11 / psy=1 / psy_rd=1.00:0.00 / mixed_ref=1 / me_range=48 / chroma_me=1 / trellis=2 / 8x8dct=1 / cqm=0 / deadzone=21,11 / fast_pskip=0 / chroma_qp_offset=-2 / threads=6 / lookahead_threads=1 / sliced_threads=0 / nr=0 / decimate=0 / interlaced=0 / bluray_compat=0 / constrained_intra=0 / bframes=9 / b_pyramid=2 / b_adapt=2 / b_bias=0 / direct=3 / weightb=1 / open_gop=0 / weightp=2 / keyint=250 / keyint_min=25 / scenecut=40 / intra_refresh=0 / rc=2pass / mbtree=0 / bitrate=1080 / ratetol=1.0 / qcomp=0.65 / qpmin=0 / qpmax=69 / qpstep=4 / cplxblur=20.0 / qblur=0.5 / ip_ratio=1.40 / pb_ratio=1.30 / aq=1:1.00Language : EnglishEncoded date : UTC 2017-05-09 10:24:51Tagged date : UTC 2017-05-09 10:24:59Color range : LimitedColor primaries : BT.601 PALTransfer characteristics : BT.470 System B, BT.470 System GMatrix coefficients : BT.601

AudioID : 2Format : AACFormat/Info : Advanced Audio CodecFormat profile : LCCodec ID : 40Duration : 1 h 14 minBit rate mode : VariableBit rate : 128 kb/sMaximum bit rate : 135 kb/sChannel(s) : 2 channelsChannel positions : Front: L RSampling rate : 48.0 kHzFrame rate : 46.875 FPS (1024 spf)Compression mode : LossyStream size : 68.6 MiB (11%)Language : RussianDefault : YesAlternate group : 1Encoded date : UTC 2017-05-09 10:24:58Tagged date : UTC 2017-05-09 10:24:59


Трекер:  [ 09-Май-2017 12:30 ]

  

Скачать .torrent

Размер .torrent файла 13 KB


Размер: 652 MB
Хэш (hash) релиза: e0099be26f7094fbe575b8dbb06c3aab43301639

Еще никто не оставлял запись к записи скачать торрент [VIDEO] Марья-искусница . Будь первым!

!Обратная связь