White Line Fever | Season 3 Episode 1 Flashpoint | shinokun

Скачать через торрент [VIDEO] Астрал 3 Insidious: Chapter 3 бесплатно русская версия torrent активатор

Статистика раздачи
Размер:  1.31 GB   |    Зарегистрирован:  1 год 2 месяца   |    .torrent скачан:  45 раз   |   
Раздают:  1  
   
загрузка...
 
Автор Сообщение

Galfimbul

avatar Galfimbul


Астрал 3 / Insidious: Chapter 3
«У каждой истории есть начало...»
Год выпуска: 2015
Оригинальное название: Insidious: Chapter 3
Страна: Канада, США
Жанр: ужасы, триллер
Возраст: 16+

Режиссер: Ли Уоннелл / Leigh Whannell

В ролях: Стефани Скотт, Дермот Малруни, Энгус Сэмпсон, Ли Уоннелл, Лин Шэй, Тейт Берни, Майкл Рид МакКей, Стив Култер, Хейли Кийоко, Корбетт Так

Описание: История о том, как одаренный экстрасенс Элис Рейнер неохотно соглашается использовать свои способности для установления связи с мертвыми, чтобы помочь девочке-подростку, которая стала мишенью для опасной сверхъестественной сущности.

Продолжительность: 01:37:21
Перевод: Дублированный [Лицензия]
Оригинальная дорожка: нет

Автор рипа:

Качество видео: BDRip Исходник: Blu-Ray Remux (1080p) Формат: mp4
Видео кодек: MPEG-4 AVC Аудио кодек: AAC
Видео: 1280x536 (2.40:1) at 23.976 fps, AVC at 1 791 kbps avg, 0.109 bit/pixel
Аудио №1 Rus: 48.0 KHz, AAC, 2 ch, 128.0 Kbps
Субтитры: нет
Навигация по главам: нет
Размер: 1.31 GiB
avs [info]: 1280x536p 1:1 @ 24000/1001 fps (cfr)
x264 [info]: using SAR=1/1
x264 [info]: using cpu capabilities: MMX2 SSE2Fast SSSE3 Cache64
x264 [info]: profile High, level 4.1
x264 [info]: frame I:1053 Avg QP:12.43 size: 82997
x264 [info]: frame P:28019 Avg QP:15.54 size: 22165
x264 [info]: frame B:111016 Avg QP:17.62 size: 5400
x264 [info]: consecutive B-frames: 1.4% 1.2% 3.7% 25.1% 15.0% 34.0% 8.4% 9.9% 1.2%
x264 [info]: mb I I16..4: 6.0% 69.1% 24.9%
x264 [info]: mb P I16..4: 1.2% 4.9% 1.0% P16..4: 46.1% 24.5% 16.1% 0.0% 0.0% skip: 6.2%
x264 [info]: mb B I16..4: 0.1% 0.3% 0.0% B16..8: 43.9% 6.2% 1.0% direct: 3.5% skip:45.0% L0:44.9% L1:49.7% BI: 5.3%
x264 [info]: 8x8 transform intra:69.4% inter:61.0%
x264 [info]: coded y,uvDC,uvAC intra: 72.5% 80.4% 61.2% inter: 13.2% 20.1% 2.8%
x264 [info]: i16 v,h,dc,p: 37% 14% 13% 36%
x264 [info]: i8 v,h,dc,ddl,ddr,vr,hd,vl,hu: 22% 13% 24% 5% 7% 8% 7% 7% 7%
x264 [info]: i4 v,h,dc,ddl,ddr,vr,hd,vl,hu: 32% 14% 21% 5% 7% 7% 6% 5% 4%
x264 [info]: i8c dc,h,v,p: 53% 17% 21% 9%
x264 [info]: Weighted P-Frames: Y:6.3% UV:3.3%
x264 [info]: ref P L0: 47.2% 6.0% 17.6% 8.2% 6.4% 5.3% 4.5% 2.5% 2.3% 0.1% 0.0%
x264 [info]: ref B L0: 72.4% 11.7% 6.6% 3.5% 2.3% 1.9% 1.4% 0.3%
x264 [info]: ref B L1: 93.0% 7.0%
x264 [info]: kb/s:1790.86
encoded 140088 frames, 2.71 fps, 1790.86 kb/s
GeneralComplete name : ...Astral_3_2015_KinoGadget.mp4Format : MPEG-4Format profile : Base MediaCodec ID : isom (isom)File size : 1.31 GiBDuration : 1 h 37 minOverall bit rate mode : VariableOverall bit rate : 1 927 kb/sMovie name : Астрал 3 | KinoGadgetPerformer : Ли УоннеллDirector : Ли УоннеллActor : Стефани Скотт / Дермот Малруни / Энгус Сэмпсон / Ли Уоннелл / Лин Шэй / Тейт Берни / Майкл Рид МакКей / Стив Култер / Хейли Кийоко / Корбетт ТакScreenplay by : Ли УоннеллProducer : Джейсон Блум / Орен Пели / Джеймс ВанGenre : Horror, ThrillerContentType : Short FilmRecorded date : 2015Encoded date : UTC 2017-05-06 11:44:30Tagged date : UTC 2017-05-09 04:51:53Cover : YesContentRating : mpaa|PG-13|300|LongDescription : История о том, как одаренный экстрасенс Элис Рейнер неохотно соглашается использовать свои способности для установления связи с мертвыми, чтобы помочь девочке-подростку, которая стала мишенью для опасной сверхъестественной сущности.HDVideo : Yes

VideoID : 1Format : AVCFormat/Info : Advanced Video CodecFormat profile : [email protected] settings, CABAC : YesFormat settings, ReFrames : 9 framesCodec ID : avc1Codec ID/Info : Advanced Video CodingDuration : 1 h 37 minBit rate : 1 791 kb/sMaximum bit rate : 9 421 kb/sWidth : 1 280 pixelsHeight : 536 pixelsDisplay aspect ratio : 2.40:1Frame rate mode : ConstantFrame rate : 23.976 (24000/1001) FPSColor space : YUVChroma subsampling : 4:2:0Bit depth : 8 bitsScan type : ProgressiveBits/(Pixel*Frame) : 0.109Stream size : 1.22 GiB (93%)Writing library : x264 core 148 r2744 b97ae06Encoding settings : cabac=1 / ref=9 / deblock=1:-1:-1 / analyse=0x3:0x113 / me=umh / subme=7 / psy=1 / psy_rd=1.00:0.00 / mixed_ref=1 / me_range=32 / chroma_me=1 / trellis=2 / 8x8dct=1 / cqm=0 / deadzone=21,11 / fast_pskip=0 / chroma_qp_offset=-2 / threads=3 / lookahead_threads=1 / sliced_threads=0 / nr=0 / decimate=1 / interlaced=0 / bluray_compat=0 / constrained_intra=0 / bframes=8 / b_pyramid=2 / b_adapt=2 / b_bias=0 / direct=1 / weightb=1 / open_gop=0 / weightp=2 / keyint=250 / keyint_min=25 / scenecut=40 / intra_refresh=0 / rc_lookahead=60 / rc=crf / mbtree=1 / crf=17.0 / qcomp=0.60 / qpmin=0 / qpmax=69 / qpstep=4 / vbv_maxrate=62500 / vbv_bufsize=78125 / crf_max=0.0 / nal_hrd=none / filler=0 / ip_ratio=1.40 / aq=1:1.00Encoded date : UTC 2017-05-06 08:02:55Tagged date : UTC 2017-05-06 11:45:27

AudioID : 2Format : AACFormat/Info : Advanced Audio CodecFormat profile : LCCodec ID : 40Duration : 1 h 37 minBit rate mode : VariableBit rate : 128 kb/sMaximum bit rate : 134 kb/sChannel(s) : 2 channelsChannel positions : Front: L RSampling rate : 48.0 kHzFrame rate : 46.875 FPS (1024 spf)Compression mode : LossyStream size : 89.2 MiB (7%)Language : RussianEncoded date : UTC 2017-05-06 08:06:22Tagged date : UTC 2017-05-06 11:45:27


Трекер:  [ 09-Май-2017 07:30 ]

  

Скачать .torrent

Размер .torrent файла 13 KB


Размер: 1.31 GB
Хэш (hash) релиза: 2c0825cd517e227e837463e292cbfc5ef7697448

Торренты, похожие на [VIDEO] Астрал 3 Insidious: Chapter 3 скачать торрент

Форум Название Автор Размер S L Добавлен
Видео (Фильмы/Клипы) ·· [VIDEO] Астрал 3 / Insidious: Chapter 3 (Ли Уоннелл / Leigh Whannell) [2015, США, ужасы, WEB-DLRip][MP4, 480x] Dub iTunes Galfimbul 491043011468 MB 0 0 1442478872

11:34

17-Сен-15

Видео (Фильмы/Клипы) ·· [VIDEO] Астрал 3 / Insidious: Chapter 3 (Ли Уоннелл / Leigh Whannell) [2015, США, ужасы, WEB-DLRip][MP4, 640x] Dub iTunes Galfimbul 883339935842 MB 0 0 1442466064

08:01

17-Сен-15

Еще никто не оставлял запись к записи скачать торрент [VIDEO] Астрал 3 Insidious: Chapter 3 . Будь первым!

!Обратная связь