Victor Millan | The Defiant Ones HDTV | vackulenko

Скачать через торрент [VIDEO] Белый Клык бесплатно русская версия torrent активатор

Статистика раздачи
Размер:  690 MB   |    Зарегистрирован:  1 год 2 месяца   |    .torrent скачан:  31 раз   |   
Раздают:  1  
   
загрузка...
 
Автор Сообщение

Galfimbul

avatar Galfimbul


Белый Клык<hr class="post-hr">[img=right:MwWWva7o70]
Warning: copy(http://i91.fastpic.ru/big/2017/0508/da/e6fd0717b640...1eebd3597fda.png): failed to open stream: HTTP request failed! in /home/youpic/public_html/poster_overflow.php on line 30
http://s010.youpic.su/pictures/1494194400/c6377b58e...wWWva7o70]<hr class="post-hr">Год выпуска: 1946
Страна: СССР / Московская Студия Научно-популярных Фильмов
Жанр: драма, приключения, семейный, экранизация
Продолжительность: 01:19:18
Перевод: не требуется
Cубтитры: нет<hr class="post-hr">Режиссер: Александр Згуриди<hr class="post-hr">В ролях: Эммануил Геллер, Лев Свердлин, Осип Абдулов, Олег Жаков, Николай Плотников, Андрей Файт, Петр Репнин, Виктор Латышевский, Елена Измайлова, Иван Бобров...<hr class="post-hr">Описание: Горный инженер Смит воспитывает собаку, которую он спас во время кровавого собачьего боя. Но его питомец Белый Клык злобен и агрессивен, ведь его воспитывали как пса-убийцу.

Не мало прошло времени, прежде чем человек и собака подружились. Но однажды ночью за Клыком пришел его прежний хозяин, вооруженный револьвером.<hr class="post-hr"> Релиз группы <hr class="post-hr">Качество: DVDRip / рип с DVD5 (Лицензия) от "Ретро-клуб"
Формат: MP4
Видео кодек: H.264
Аудио кодек: AAC
Видео: 468x360 AR:4/3 1080 kbps 25 fps
Аудио: 2ch 48 kHz 128 kbps<hr class="post-hr">
avs [info]: 468x360p 1:1 @ 25/1 fps (cfr)
x264 [info]: using SAR=1/1
x264 [info]: using cpu capabilities: MMX2 SSE2Fast SSSE3 SSE4.2 AVX FMA3 AVX2 LZCNT BMI2
x264 [info]: profile High, level 4.1

x264 [info]: frame I:740 Avg QP:18.36 size: 22468
x264 [info]: frame P:26294 Avg QP:21.34 size: 9653
x264 [info]: frame B:91922 Avg QP:23.19 size: 4046
x264 [info]: consecutive B-frames: 1.2% 1.6% 7.9% 34.8% 20.5% 23.5% 5.7% 2.7% 1.5% 0.6%
x264 [info]: mb I I16..4: 0.8% 84.1% 15.1%
x264 [info]: mb P I16..4: 0.2% 13.1% 1.7% P16..4: 31.7% 36.6% 14.8% 1.5% 0.1% skip: 0.2%
x264 [info]: mb B I16..4: 0.1% 2.3% 0.3% B16..8: 35.3% 22.0% 3.8% direct:13.9% skip:22.5% L0:45.3% L1:36.2% BI:18.6%
x264 [info]: 8x8 transform intra:86.8% inter:63.2%
x264 [info]: direct mvs spatial:97.4% temporal:2.6%
x264 [info]: coded y,uvDC,uvAC intra: 94.2% 9.4% 0.4% inter: 46.3% 4.6% 0.0%
x264 [info]: i16 v,h,dc,p: 11% 21% 6% 62%
x264 [info]: i8 v,h,dc,ddl,ddr,vr,hd,vl,hu: 10% 9% 4% 10% 14% 12% 15% 11% 15%
x264 [info]: i4 v,h,dc,ddl,ddr,vr,hd,vl,hu: 8% 28% 2% 6% 11% 11% 13% 8% 13%
x264 [info]: i8c dc,h,v,p: 48% 43% 7% 1%
x264 [info]: Weighted P-Frames: Y:65.6% UV:0.6%
x264 [info]: ref P L0: 37.6% 13.6% 11.5% 8.6% 6.2% 5.6% 4.5% 3.1% 2.7% 2.6% 2.4% 1.7% 0.0%
x264 [info]: ref B L0: 65.7% 11.5% 6.7% 4.2% 3.2% 2.8% 2.4% 1.7% 1.2% 0.6%
x264 [info]: ref B L1: 94.9% 5.1%
x264 [info]: kb/s:1080.02

encoded 118956 frames, 24.65 fps, 1080.02 kb/s
GeneralComplete name : D:\Torrents\Белый Клык.1946.DVDRip.x264.640x.rip by Frost O.S.mp4Format : MPEG-4Format profile : Base MediaCodec ID : isom (isom/avc1)File size : 690 MiBDuration : 1 h 19 minOverall bit rate mode : VariableOverall bit rate : 1 216 kb/sMovie name : Белый Клык 1946 DVDRip x264 640x rip by Frost O SDirector : Александр ЗгуридиActor : Эммануил Геллер / Лев Свердлин / Осип Абдулов / Олег Жаков / Николай Плотников / Андрей Файт / Петр Репнин / Виктор Латышевский / Елена Измайлова / Иван БобровGenre : DramaContentType : Short FilmEncoded date : UTC 2017-05-08 18:37:51Tagged date : UTC 2017-05-08 18:38:47Writing application : MkvToMp4 version: 0.224 (x64)Cover : YesComment : rip by Frost O.SLongDescription : Горный инженер Смит воспитывает собаку, которую он спас во время кровавого собачьего боя. Но его питомец Белый Клык злобен и агрессивен, ведь его воспитывали как пса-убийцу. / Не мало прошло времени, прежде чем человек и собака подружились. Но однажды ночью за Клыком пришел его прежний хозяин, вооруженный револьвером.

VideoID : 1Format : AVCFormat/Info : Advanced Video CodecFormat profile : [email protected] settings, CABAC : YesFormat settings, ReFrames : 11 framesCodec ID : avc1Codec ID/Info : Advanced Video CodingDuration : 1 h 19 minBit rate : 1 080 kb/sMaximum bit rate : 2 568 kb/sWidth : 468 pixelsHeight : 360 pixelsDisplay aspect ratio : 4:3Frame rate mode : ConstantFrame rate : 25.000 FPSColor space : YUVChroma subsampling : 4:2:0Bit depth : 8 bitsScan type : ProgressiveBits/(Pixel*Frame) : 0.256Stream size : 613 MiB (89%)Writing library : x264 core 148 r2744 b97ae06Encoding settings : cabac=1 / ref=11 / deblock=1:-1:-1 / analyse=0x3:0x133 / me=umh / subme=11 / psy=1 / psy_rd=1.00:0.00 / mixed_ref=1 / me_range=48 / chroma_me=1 / trellis=2 / 8x8dct=1 / cqm=0 / deadzone=21,11 / fast_pskip=0 / chroma_qp_offset=-2 / threads=6 / lookahead_threads=1 / sliced_threads=0 / nr=0 / decimate=0 / interlaced=0 / bluray_compat=0 / constrained_intra=0 / bframes=9 / b_pyramid=2 / b_adapt=2 / b_bias=0 / direct=3 / weightb=1 / open_gop=0 / weightp=2 / keyint=250 / keyint_min=25 / scenecut=40 / intra_refresh=0 / rc=2pass / mbtree=0 / bitrate=1080 / ratetol=1.0 / qcomp=0.65 / qpmin=0 / qpmax=69 / qpstep=4 / cplxblur=20.0 / qblur=0.5 / ip_ratio=1.40 / pb_ratio=1.30 / aq=1:0.80Language : EnglishEncoded date : UTC 2017-05-08 18:37:51Tagged date : UTC 2017-05-08 18:38:10Color range : LimitedColor primaries : BT.601 PALTransfer characteristics : BT.470 System B, BT.470 System GMatrix coefficients : BT.601

AudioID : 2Format : AACFormat/Info : Advanced Audio CodecFormat profile : LCCodec ID : 40Duration : 1 h 19 minBit rate mode : VariableBit rate : 128 kb/sMaximum bit rate : 132 kb/sChannel(s) : 2 channelsChannel positions : Front: L RSampling rate : 48.0 kHzFrame rate : 46.875 FPS (1024 spf)Compression mode : LossyStream size : 72.6 MiB (11%)Language : RussianDefault : YesAlternate group : 1Encoded date : UTC 2017-05-08 18:38:01Tagged date : UTC 2017-05-08 18:38:10


Трекер:  [ 08-Май-2017 20:30 ]

  

Скачать .torrent

Размер .torrent файла 14 KB


Размер: 690 MB
Хэш (hash) релиза: 392f280589d30638e1ec5863b4e2653b62061bcc

Еще никто не оставлял запись к записи скачать торрент [VIDEO] Белый Клык . Будь первым!

!Обратная связь