The God Of Cookery | First Class 2 | Peace (2016)

Скачать через торрент [VIDEO] Усатый нянь бесплатно русская версия torrent активатор

Статистика раздачи
Размер:  612 MB   |    Зарегистрирован:  1 год 2 месяца   |    .torrent скачан:  21 раз   |   
Раздают:  1  
   
загрузка...
 
Автор Сообщение

Galfimbul

avatar Galfimbul


Усатый нянь<hr class="post-hr">
<hr class="post-hr">Год выпуска: 1977
Страна: СССР
Жанр: детский, семейный, комедия
Продолжительность: 01:10:24
Перевод: не требуется
Cубтитры: нет<hr class="post-hr">Режиссер: Владимир Грамматиков<hr class="post-hr">В ролях: Сергей Проханов,Людмила Шагалова,Елизавета Уварова,Марина Матвиенко,Надежда Самсонова,Александр Сажин,Валерий Кисленко,Сергей Бачурский,Sergei Krol,Вадим Александров .<hr class="post-hr">Описание: Молодой человек, лоботряс — допризывник Кеша, не способен надолго задержаться ни на одной работе. Ну никак не хочет он превращаться во взрослого человека! И вот он становится объектом смелого эксперимента: его берут на работу в детский сад. Расстаться с детством ему помогут дети…<hr class="post-hr"> Релиз группы <hr class="post-hr">Качество: DVDRip / рип с DVD5 "Twister"
Формат: MP4
Видео кодек: H.264
Аудио кодек: AAC
Видео: 640x278 AR:2.35 1080 kbps 25 fps
Аудио: 2ch 48 kHz 128 kbps<hr class="post-hr">
avs [info]: 640x278p 1:1 @ 25/1 fps (cfr)
x264 [info]: using SAR=1/1
x264 [info]: using cpu capabilities: MMX2 SSE2Fast SSSE3 SSE4.2 AVX FMA3 AVX2 LZCNT BMI2
x264 [info]: profile High, level 4.1

x264 [info]: frame I:641 Avg QP:17.08 size: 22195
x264 [info]: frame P:25187 Avg QP:20.13 size: 9776
x264 [info]: frame B:79773 Avg QP:21.93 size: 3884
x264 [info]: consecutive B-frames: 2.0% 4.1% 11.7% 30.4% 14.9% 29.8% 4.1% 1.8% 1.1%
x264 [info]: mb I I16..4: 2.0% 83.0% 15.0%
x264 [info]: mb P I16..4: 0.5% 14.1% 1.9% P16..4: 32.8% 37.6% 11.7% 1.1% 0.1% skip: 0.2%
x264 [info]: mb B I16..4: 0.1% 1.7% 0.2% B16..8: 38.8% 26.7% 3.9% direct: 8.3% skip:20.4% L0:42.1% L1:39.0% BI:18.9%
x264 [info]: 8x8 transform intra:85.0% inter:69.5%
x264 [info]: direct mvs spatial:97.5% temporal:2.5%
x264 [info]: coded y,uvDC,uvAC intra: 94.6% 86.0% 48.5% inter: 41.5% 37.3% 6.6%
x264 [info]: i16 v,h,dc,p: 19% 34% 1% 46%
x264 [info]: i8 v,h,dc,ddl,ddr,vr,hd,vl,hu: 15% 6% 3% 9% 14% 15% 13% 13% 12%
x264 [info]: i4 v,h,dc,ddl,ddr,vr,hd,vl,hu: 22% 13% 1% 7% 12% 14% 11% 10% 9%
x264 [info]: i8c dc,h,v,p: 33% 23% 24% 20%
x264 [info]: Weighted P-Frames: Y:43.7% UV:24.3%
x264 [info]: ref P L0: 43.9% 14.1% 15.0% 7.6% 5.3% 4.2% 3.2% 2.1% 1.9% 1.9% 0.8% 0.0%
x264 [info]: ref B L0: 79.8% 8.7% 4.1% 2.4% 1.7% 1.4% 1.1% 0.6% 0.3%
x264 [info]: ref B L1: 97.0% 3.0%
x264 [info]: kb/s:1080.12

encoded 105601 frames, 22.56 fps, 1080.12 kb/s
GeneralComplete name : D:\Torrents\Усатый нянь.1977.DVDRip.x264.640x.rip by Frost O.S.mp4Format : MPEG-4Format profile : Base MediaCodec ID : isom (isom/avc1)File size : 612 MiBDuration : 1 h 10 minOverall bit rate mode : VariableOverall bit rate : 1 216 kb/sMovie name : Усатый нянь 1977 DVDRip x264 640x rip by Frost O SDirector : Владимир ГрамматиковActor : Сергей Проханов / Людмила Шагалова / Елизавета Уварова / Марина Матвиенко / Надежда Самсонова / Александр Сажин / Валерий Кисленко / Сергей Бачурский / Sergei Krol / Вадим АлександровGenre : Children'sContentType : Short FilmEncoded date : UTC 2017-05-08 16:11:46Tagged date : UTC 2017-05-08 16:12:27Writing application : MkvToMp4 version: 0.224 (x64)Cover : YesComment : rip by Frost O.SLongDescription : Молодой человек, лоботряс — допризывник Кеша, не способен надолго задержаться ни на одной работе. Ну никак не хочет он превращаться во взрослого человека! И вот он становится объектом смелого эксперимента: его берут на работу в детский сад. Расстаться с детством ему помогут дети…

VideoID : 1Format : AVCFormat/Info : Advanced Video CodecFormat profile : [email protected] settings, CABAC : YesFormat settings, ReFrames : 10 framesCodec ID : avc1Codec ID/Info : Advanced Video CodingDuration : 1 h 10 minBit rate : 1 080 kb/sMaximum bit rate : 3 502 kb/sWidth : 640 pixelsHeight : 278 pixelsDisplay aspect ratio : 2.35:1Frame rate mode : ConstantFrame rate : 25.000 FPSColor space : YUVChroma subsampling : 4:2:0Bit depth : 8 bitsScan type : ProgressiveBits/(Pixel*Frame) : 0.243Stream size : 544 MiB (89%)Writing library : x264 core 148 r2744 b97ae06Encoding settings : cabac=1 / ref=10 / deblock=1:-1:-1 / analyse=0x3:0x133 / me=umh / subme=11 / psy=1 / psy_rd=1.00:0.00 / mixed_ref=1 / me_range=48 / chroma_me=1 / trellis=2 / 8x8dct=1 / cqm=0 / deadzone=21,11 / fast_pskip=0 / chroma_qp_offset=-2 / threads=6 / lookahead_threads=1 / sliced_threads=0 / nr=0 / decimate=0 / interlaced=0 / bluray_compat=0 / constrained_intra=0 / bframes=8 / b_pyramid=2 / b_adapt=2 / b_bias=0 / direct=3 / weightb=1 / open_gop=0 / weightp=2 / keyint=250 / keyint_min=25 / scenecut=40 / intra_refresh=0 / rc=2pass / mbtree=0 / bitrate=1080 / ratetol=1.0 / qcomp=0.70 / qpmin=0 / qpmax=69 / qpstep=4 / cplxblur=20.0 / qblur=0.5 / ip_ratio=1.40 / pb_ratio=1.30 / aq=1:0.80Language : EnglishEncoded date : UTC 2017-05-08 16:11:46Tagged date : UTC 2017-05-08 16:11:57Color range : LimitedColor primaries : BT.601 PALTransfer characteristics : BT.470 System B, BT.470 System GMatrix coefficients : BT.601

AudioID : 2Format : AACFormat/Info : Advanced Audio CodecFormat profile : LCCodec ID : 40Duration : 1 h 10 minBit rate mode : VariableBit rate : 128 kb/sMaximum bit rate : 134 kb/sChannel(s) : 2 channelsChannel positions : Front: L RSampling rate : 48.0 kHzFrame rate : 46.875 FPS (1024 spf)Compression mode : LossyStream size : 64.4 MiB (11%)Language : RussianDefault : YesAlternate group : 1Encoded date : UTC 2017-05-08 16:11:56Tagged date : UTC 2017-05-08 16:11:57


Трекер:  [ 08-Май-2017 18:00 ]

  

Скачать .torrent

Размер .torrent файла 12 KB


Размер: 612 MB
Хэш (hash) релиза: fa192152437b3fec13e752c7fa2d8e1286ec0b08

Еще никто не оставлял запись к записи скачать торрент [VIDEO] Усатый нянь . Будь первым!

!Обратная связь