Для взрослых | Chen Kaige | Samurai 7

Скачать через торрент [SERIAL] Побег: Продолжение Prison Break: Sequel бесплатно русская версия torrent активатор

Статистика раздачи
Размер:  279 MB   |    Зарегистрирован:  1 год 2 месяца   |    .torrent скачан:  25 раз   |   
Раздают:  1  
   
загрузка...
 
Автор Сообщение

Galfimbul

avatar Galfimbul


Побег: Продолжение / Prison Break: Sequel5 сезон<hr class="post-hr">
Год выпуска: 2017
Страна: США
Жанр: боевик, триллер, драма, криминал, детектив
Продолжительность: ~ 00:43:00
Перевод: Профессиональный (многоголосый, закадровый) LostFilm<hr class="post-hr">Режиссер: Нельсон МакКормик / Nelson McCormick<hr class="post-hr">В ролях: Доминик Пёрселл, Вентворт Миллер, Амори Ноласко, Роберт Неппер, Сара Уэйн Кэллис, Рокмонд Данбар, Марина Бенедикт, Кристиан Майкл Купер, Марк Фойерстин, Стив Музакис, Эмин Эль Гамин, Кертис Льюм, Бобби Надери, Пол Адельштейн<hr class="post-hr">Описание: В руки Ти-Бэга попадает снимок, который доказывает, что Майкл Скофилд, считавшийся погибшим вот уже семь лет, все это время был жив. Ти-Бэг сообщает об этом Линкольну, и тот объединяется со старыми друзьями, чтобы найти брата. Поиски приводят их в тюрьму Йемена. Герои решают вытащить Майкла из-за решетки и планируют масштабный побег.<hr class="post-hr">Доп. информация: На данный момент доступно 5 серий из 9. Завтра планирую добавить еще три.<hr class="post-hr">Качество: WEB-DLRip
Формат: 3GP
Видео кодек: MPEG-4 Visual
Аудио кодек: AAC
Видео: MPEG-4 Visual, 320x180 (16:9), 320 Kbps, 23.976 fps
Аудио: Русский, AAC, 2 ch, 128 Kbps, 48 KHz
ОбщееПолное имя : D:\Раздачи\Prison.Break.Sequel.WEB-DLRip.320x\Prison.Break.S05E01.3gpФормат : MPEG-4Профиль формата : 3GPP Media Release 4Идентификатор кодека : 3gp4 (isom/iso2/3gp4)Размер файла : 139 МбайтПродолжительность : 43 м.Режим общего битрейта : ПостоянныйОбщий поток : 450 Кбит/сек

ВидеоИдентификатор : 1Формат : MPEG-4 VisualПрофиль формата : [email protected]Параметр BVOP формата : НетПараметр QPel формата : НетПараметр GMC формата : Без точки переходаПараметр матрицы формата : Default (H.263)Идентификатор кодека : 20Продолжительность : 43 м.Вид битрейта : ПостоянныйБитрейт : 320 Кбит/секШирина : 320 пикселейВысота : 180 пикселейСоотношение сторон : 16:9Режим частоты кадров : ПостоянныйЧастота кадров : 23,976 (24000/1001) кадра/секЦветовое пространство : YUVСубдискретизация насыщенности : 4:2:0Битовая глубина : 8 битТип развёртки : ПрогрессивнаяМетод сжатия : С потерямиБит/(Пиксели*Кадры) : 0.232Размер потока : 97,8 Мбайт (71%)Библиотека кодирования : XviD 1.2.1 (UTC 2008-12-04)

АудиоИдентификатор : 2Формат : AACФормат/Информация : Advanced Audio CodecПрофиль формата : LCИдентификатор кодека : 40Продолжительность : 43 м.Вид битрейта : ПостоянныйБитрейт : 128 Кбит/секКаналы : 2 каналаРасположение каналов : Front: L RЧастота : 48,0 КГцЧастота кадров : 46,875 кадров/сек (1024 spf)Метод сжатия : С потерямиРазмер потока : 39,3 Мбайт (28%)
Когда раздача ведётся путём добавления новых серий, при каждом добавлении создётся новый торрент. Чтобы начать докачку новой серии, пользователям необходимо сделать следующее:
(1) остановить скачивание,
(2) удалить старый торрент у себя из клиента (старые серии удалять не надо),
(3) скачать новый торрент и запустить его у себя в клиенте вместо старого, при этом указать клиенту путь в старую папку, куда и должно происходить скачивание новых серий.
Ваш клиент при этом должен произвести хеширование (проверку) старой папки (если не производит сам - помогите ему сделать это), и будет докачивать только те серии, которых у вас ещё нет. Старые серии при этом не удаляются, а продолжают раздаваться!
Eсли вы уже удалили старые серии, то предотвратить повторную закачку старых серий можно, отжав галочку в соответсвующих местах при запуске нового торрента. По возможности, желательно не удалять старые серии как можно дольше, чтобы релизёр не столько продолжал раздавать старые серии, а смог сконцентрироваться на новых.


Трекер:  [ 08-Май-2017 16:00 ]

  

Скачать .torrent

Размер .torrent файла 11 KB


Размер: 279 MB
Хэш (hash) релиза: 677696882fd90e0091a9ca7036e85289cd387a22

Еще никто не оставлял запись к записи скачать торрент [SERIAL] Побег: Продолжение Prison Break: Sequel . Будь первым!

!Обратная связь