Пожаловаться на спойлер? | The.Handmaids.Tale.S01E01.NORDiC.720p.WEBRip.x264-MOROSE-NO.srt | APKPure untuk Android

Скачать через торрент [VIDEO] Доктор Айболит бесплатно русская версия torrent активатор

Статистика раздачи
Размер:  582 MB   |    Зарегистрирован:  1 год 2 месяца   |    .torrent скачан:  25 раз   |   
Раздают:  1  
   
загрузка...
 
Автор Сообщение

Galfimbul

avatar Galfimbul


Доктор Айболит<hr class="post-hr">
<hr class="post-hr">Год выпуска: 1938
Страна: СССР
Жанр: детский, приключения, музыкальный, комедия
Продолжительность: 01:06:56
Перевод: не требуется
Cубтитры: нет<hr class="post-hr">Режиссер: Владимир Немоляев<hr class="post-hr">В ролях: Максим Штраух, Анна Вильямс, Иван Аркадин, Витя Селезнёв, Александр Тимонтаев, Евгений Гуров, Иона Бий-Бродский, Эммануил Геллер, Петр Галаджев .<hr class="post-hr">Описание: Сказка про доброго доктора Айболита и его злобную сестру Варвару, про вредных людей — разбойников и про замечательных друзей доктора — животных, которых играют настоящие животные.<hr class="post-hr"> Релиз группы <hr class="post-hr">Качество: DVDRip / рип с DVD5 «Мьюзик-трейд»
Формат: MP4
Видео кодек: H.264
Аудио кодек: AAC
Видео: 464x360 AR:1.29 1080 kbps 25 fps
Аудио: 2ch 48 kHz 128 kbps<hr class="post-hr">
avs [info]: 464x360p 1:1 @ 25/1 fps (cfr)
x264 [info]: using SAR=1/1
x264 [info]: using cpu capabilities: MMX2 SSE2Fast SSSE3 SSE4.2 AVX FMA3 AVX2 LZCNT BMI2
x264 [info]: profile High, level 4.1

x264 [info]: frame I:648 Avg QP:20.01 size: 18544
x264 [info]: frame P:19997 Avg QP:23.02 size: 9421
x264 [info]: frame B:79765 Avg QP:25.26 size: 4286
x264 [info]: consecutive B-frames: 1.3% 1.6% 4.8% 21.7% 16.7% 34.2% 7.6% 4.3% 2.5% 1.2% 1.4% 2.7%
x264 [info]: mb I I16..4: 2.2% 86.6% 11.2%
x264 [info]: mb P I16..4: 0.1% 12.0% 1.0% P16..4: 33.5% 37.9% 13.9% 1.1% 0.1% skip: 0.4%
x264 [info]: mb B I16..4: 0.0% 1.7% 0.2% B16..8: 39.9% 22.0% 4.3% direct: 9.8% skip:22.2% L0:47.7% L1:40.8% BI:11.5%
x264 [info]: 8x8 transform intra:90.4% inter:64.3%
x264 [info]: direct mvs spatial:98.0% temporal:2.0%
x264 [info]: coded y,uvDC,uvAC intra: 96.4% 16.7% 1.2% inter: 44.3% 5.2% 0.2%
x264 [info]: i16 v,h,dc,p: 26% 32% 3% 40%
x264 [info]: i8 v,h,dc,ddl,ddr,vr,hd,vl,hu: 9% 7% 5% 9% 16% 12% 17% 10% 15%
x264 [info]: i4 v,h,dc,ddl,ddr,vr,hd,vl,hu: 8% 7% 2% 8% 17% 14% 19% 10% 16%
x264 [info]: i8c dc,h,v,p: 45% 44% 9% 2%
x264 [info]: Weighted P-Frames: Y:62.7% UV:0.0%
x264 [info]: ref P L0: 39.2% 12.3% 13.4% 8.3% 6.0% 5.3% 4.3% 2.8% 2.4% 2.4% 2.2% 1.5% 0.0%
x264 [info]: ref B L0: 62.6% 13.0% 7.8% 4.4% 3.4% 3.0% 2.5% 1.7% 1.1% 0.5%
x264 [info]: ref B L1: 93.1% 6.9%
x264 [info]: kb/s:1080.20

encoded 100410 frames, 23.50 fps, 1080.20 kb/s
GeneralComplete name : D:\Torrents\Доктор Айболит.1938.DVDRip.x264.640x.rip by Frost O.S.mp4Format : MPEG-4Format profile : Base MediaCodec ID : isom (isom/avc1)File size : 582 MiBDuration : 1 h 6 minOverall bit rate mode : VariableOverall bit rate : 1 216 kb/sMovie name : Доктор Айболит 1938 DVDRip x264 640x rip by Frost O SDirector : Владимир НемоляевActor : Максим Штраух / Анна Вильямс / Иван Аркадин / Витя Селезнёв / Александр Тимонтаев / Евгений Гуров / Иона Бий-Бродский / Эммануил Геллер / Петр ГаладжевGenre : Children'sContentType : Short FilmEncoded date : UTC 2017-05-08 13:20:14Tagged date : UTC 2017-05-08 13:21:08Writing application : MkvToMp4 version: 0.224 (x64)Cover : YesComment : rip by Frost O.SLongDescription : Сказка про доброго доктора Айболита и его злобную сестру Варвару, про вредных людей — разбойников и про замечательных друзей доктора — животных, которых играют настоящие животные.

VideoID : 1Format : AVCFormat/Info : Advanced Video CodecFormat profile : [email protected] settings, CABAC : YesFormat settings, ReFrames : 11 framesCodec ID : avc1Codec ID/Info : Advanced Video CodingDuration : 1 h 6 minBit rate : 1 080 kb/sMaximum bit rate : 3 181 kb/sWidth : 464 pixelsHeight : 360 pixelsDisplay aspect ratio : 1.289Frame rate mode : ConstantFrame rate : 25.000 FPSColor space : YUVChroma subsampling : 4:2:0Bit depth : 8 bitsScan type : ProgressiveBits/(Pixel*Frame) : 0.259Stream size : 517 MiB (89%)Writing library : x264 core 148 r2744 b97ae06Encoding settings : cabac=1 / ref=11 / deblock=1:-1:-1 / analyse=0x3:0x133 / me=umh / subme=11 / psy=1 / psy_rd=1.00:0.00 / mixed_ref=1 / me_range=48 / chroma_me=1 / trellis=2 / 8x8dct=1 / cqm=0 / deadzone=21,11 / fast_pskip=0 / chroma_qp_offset=-2 / threads=6 / lookahead_threads=1 / sliced_threads=0 / nr=0 / decimate=0 / interlaced=0 / bluray_compat=0 / constrained_intra=0 / bframes=11 / b_pyramid=2 / b_adapt=2 / b_bias=0 / direct=3 / weightb=1 / open_gop=0 / weightp=2 / keyint=250 / keyint_min=25 / scenecut=40 / intra_refresh=0 / rc=2pass / mbtree=0 / bitrate=1080 / ratetol=1.0 / qcomp=0.65 / qpmin=0 / qpmax=69 / qpstep=4 / cplxblur=20.0 / qblur=0.5 / ip_ratio=1.40 / pb_ratio=1.30 / aq=1:0.80Language : EnglishEncoded date : UTC 2017-05-08 13:20:14Tagged date : UTC 2017-05-08 13:20:32Color range : LimitedColor primaries : BT.601 PALTransfer characteristics : BT.470 System B, BT.470 System GMatrix coefficients : BT.601

AudioID : 2Format : AACFormat/Info : Advanced Audio CodecFormat profile : LCCodec ID : 40Duration : 1 h 6 minBit rate mode : VariableBit rate : 128 kb/sMaximum bit rate : 132 kb/sChannel(s) : 2 channelsChannel positions : Front: L RSampling rate : 48.0 kHzFrame rate : 46.875 FPS (1024 spf)Compression mode : LossyStream size : 61.3 MiB (11%)Language : RussianDefault : YesAlternate group : 1Encoded date : UTC 2017-05-08 13:20:24Tagged date : UTC 2017-05-08 13:20:32


Трекер:  [ 08-Май-2017 15:30 ]

  

Скачать .torrent

Размер .torrent файла 12 KB


Размер: 582 MB
Хэш (hash) релиза: 90215fcb5fd58b628c779c7b7bd66923c94f6f64

Еще никто не оставлял запись к записи скачать торрент [VIDEO] Доктор Айболит . Будь первым!

!Обратная связь