Luke Bryan | Mila Kunis | Hatarakanai Futari (YOSHIDA Satoru) 308.1

Скачать через торрент [VIDEO] Викинг бесплатно русская версия torrent активатор

Статистика раздачи
Размер:  2.98 GB   |    Зарегистрирован:  1 год 2 месяца   |    .torrent скачан:  71 раз   |   
Раздают:  1  
   
загрузка...
 
Автор Сообщение

Galfimbul

avatar Galfimbul


Викинг
«Тебе нужно увидеть, чтобы поверить»
Год выпуска: 2016
Оригинальное название: Викинг
Страна: Россия
Жанр: история, драма
Возраст: 18+

Режиссер: Андрей Кравчук

В ролях: Данила Козловский, Светлана Ходченкова, Максим Суханов, Игорь Петренко, Андрей Смоляков, Владимир Епифанцев, Александра Бортич, Кирилл Плетнёв, Александр Устюгов, Ростислав Бершауэр

Описание: Раннее Средневековье. Время тяжелых мечей и темных законов крови. Правящий род в раздоре. Вина за случайную смерть брата легла на Великого Князя. По закону мстить ему должен младший брат — бастард. За отказ убивать он заплатит всем, что у него было, потому что «для мира нужно больше мечей, чем для войны».

Продолжительность: 02:22:40
Перевод: Оригинал (русский) [Лицензия Blu-Ray Ger]
Оригинальная дорожка: нет

Автор рипа:

Качество видео: BDRip Исходник: Blu-Ray (1080p) Формат: mp4
Видео кодек: MPEG-4 AVC Аудио кодек: AAC
Видео: 1280x534 (2.40:1) at 23.976 fps, AVC at 2 865 kbps avg, 0.175 bit/pixel
Аудио №1 Rus: 48.0 KHz, AAC, 2 ch, 128.0 Kbps
Субтитры: нет
Навигация по главам: есть
Размер: 2.98 GiB
avs [info]: 1280x534p 1:1 @ 24000/1001 fps (cfr)
x264 [info]: using SAR=1/1
x264 [info]: using cpu capabilities: MMX2 SSE2Fast SSSE3 Cache64
x264 [info]: profile High, level 4.1
x264 [info]: frame I:1894 Avg QP:17.00 size: 93413
x264 [info]: frame P:45135 Avg QP:20.35 size: 28653
x264 [info]: frame B:157582 Avg QP:22.67 size: 10067
x264 [info]: consecutive B-frames: 2.0% 2.1% 7.7% 27.6% 18.5% 31.7% 10.3%
x264 [info]: mb I I16..4: 7.2% 75.8% 17.0%
x264 [info]: mb P I16..4: 1.6% 13.1% 1.5% P16..4: 42.0% 20.4% 12.6% 0.0% 0.0% skip: 8.7%
x264 [info]: mb B I16..4: 0.1% 1.5% 0.2% B16..8: 42.4% 8.9% 2.1% direct: 5.8% skip:38.8% L0:45.1% L1:46.9% BI: 8.0%
x264 [info]: 8x8 transform intra:80.3% inter:73.1%
x264 [info]: coded y,uvDC,uvAC intra: 79.7% 75.8% 39.8% inter: 25.2% 27.0% 1.9%
x264 [info]: i16 v,h,dc,p: 30% 21% 7% 42%
x264 [info]: i8 v,h,dc,ddl,ddr,vr,hd,vl,hu: 18% 14% 17% 6% 9% 10% 9% 8% 9%
x264 [info]: i4 v,h,dc,ddl,ddr,vr,hd,vl,hu: 21% 15% 13% 7% 11% 10% 10% 7% 7%
x264 [info]: i8c dc,h,v,p: 54% 19% 19% 7%
x264 [info]: Weighted P-Frames: Y:9.4% UV:4.8%
x264 [info]: ref P L0: 49.5% 13.5% 14.4% 6.3% 4.6% 3.5% 2.9% 1.9% 1.8% 1.6% 0.2% 0.0%
x264 [info]: ref B L0: 81.2% 8.0% 4.1% 2.1% 1.6% 1.2% 0.9% 0.5% 0.3%
x264 [info]: ref B L1: 96.3% 3.7%
x264 [info]: kb/s:2865.33
encoded 204611 frames, 1.95 fps, 2865.33 kb/s
GeneralComplete name : ...Viking_2016_KinoGadget.mp4Format : MPEG-4Format profile : Base MediaCodec ID : isom (isom)File size : 2.98 GiBDuration : 2 h 22 minOverall bit rate mode : VariableOverall bit rate : 2 993 kb/sMovie name : Викинг | KinoGadgetPerformer : Андрей КравчукDirector : Андрей КравчукActor : Данила Козловский / Светлана Ходченкова / Максим Суханов / Игорь Петренко / Андрей Смоляков / Владимир Епифанцев / Александра Бортич / Кирилл Плетнёв / Александр Устюгов / Ростислав БершауэрScreenplay by : Андрей Рубанов / Виктор Смирнов / Андрей КравчукProducer : Константин Эрнст / Анатолий Максимов / Александр УткинGenre : Drama, HistoricalContentType : Short FilmRecorded date : 2016Encoded date : UTC 2017-05-04 04:59:44Tagged date : UTC 2017-05-08 13:02:04Cover : YesContentRating : mpaa|R|400|LongDescription : Раннее Средневековье. Время тяжелых мечей и темных законов крови. Правящий род в раздоре. Вина за случайную смерть брата легла на Великого Князя. По закону мстить ему должен младший брат — бастард. За отказ убивать он заплатит всем, что у него было, потому что «для мира нужно больше мечей, чем для войны».HDVideo : Yes

VideoID : 1Format : AVCFormat/Info : Advanced Video CodecFormat profile : [email protected] settings, CABAC : YesFormat settings, ReFrames : 10 framesCodec ID : avc1Codec ID/Info : Advanced Video CodingDuration : 2 h 22 minBit rate : 2 865 kb/sMaximum bit rate : 16.7 Mb/sWidth : 1 280 pixelsHeight : 534 pixelsDisplay aspect ratio : 2.40:1Frame rate mode : ConstantFrame rate : 23.976 (24000/1001) FPSColor space : YUVChroma subsampling : 4:2:0Bit depth : 8 bitsScan type : ProgressiveBits/(Pixel*Frame) : 0.175Stream size : 2.85 GiB (95%)Writing library : x264 core 148 r2744 b97ae06Encoding settings : cabac=1 / ref=10 / deblock=1:-1:-1 / analyse=0x3:0x113 / me=umh / subme=7 / psy=1 / psy_rd=1.00:0.00 / mixed_ref=1 / me_range=32 / chroma_me=1 / trellis=2 / 8x8dct=1 / cqm=0 / deadzone=21,11 / fast_pskip=0 / chroma_qp_offset=-2 / threads=3 / lookahead_threads=1 / sliced_threads=0 / nr=0 / decimate=1 / interlaced=0 / bluray_compat=0 / constrained_intra=0 / bframes=6 / b_pyramid=2 / b_adapt=2 / b_bias=0 / direct=1 / weightb=1 / open_gop=0 / weightp=2 / keyint=250 / keyint_min=25 / scenecut=40 / intra_refresh=0 / rc_lookahead=60 / rc=crf / mbtree=1 / crf=20.0 / qcomp=0.60 / qpmin=0 / qpmax=69 / qpstep=4 / vbv_maxrate=62500 / vbv_bufsize=78125 / crf_max=0.0 / nal_hrd=none / filler=0 / ip_ratio=1.40 / aq=1:1.00Encoded date : UTC 2017-05-04 00:02:59Tagged date : UTC 2017-05-04 05:00:43

AudioID : 2Format : AACFormat/Info : Advanced Audio CodecFormat profile : LCCodec ID : 40Duration : 2 h 22 minBit rate mode : VariableBit rate : 128 kb/sMaximum bit rate : 135 kb/sChannel(s) : 2 channelsChannel positions : Front: L RSampling rate : 48.0 kHzFrame rate : 46.875 FPS (1024 spf)Compression mode : LossyStream size : 131 MiB (4%)Language : RussianEncoded date : UTC 2017-05-04 00:10:25Tagged date : UTC 2017-05-04 05:00:43

Menu


Трекер:  [ 08-Май-2017 15:30 ]

  

Скачать .torrent

Размер .torrent файла 15 KB


Размер: 2.98 GB
Хэш (hash) релиза: a3f3030d9e25add511943e3285c66f76003ebdc6

Еще никто не оставлял запись к записи скачать торрент [VIDEO] Викинг . Будь первым!

!Обратная связь