The Messengers | The.Commuter.2018.German.DL.DTS.1080p.BluRa | Continuous Delivery with Visual Studio Team Services

Скачать через торрент [VIDEO] Айболит-66 бесплатно русская версия torrent активатор

Статистика раздачи
Размер:  814 MB   |    Зарегистрирован:  1 год 2 месяца   |    .torrent скачан:  25 раз   |   
Раздают:  1  
   
загрузка...
 
Автор Сообщение

Galfimbul

avatar Galfimbul


Айболит-66<hr class="post-hr">
<hr class="post-hr">Год выпуска: 1967
Страна: СССР
Жанр: детский, приключения, музыкальный, комедия
Продолжительность: 0133:36
Перевод: не требуется
Cубтитры: нет<hr class="post-hr">Режиссер: Ролан Быков<hr class="post-hr">В ролях: Олег Ефремов, Ролан Быков, Лидия Князева, Евгений Васильев, Фрунзе Мкртчян, Алексей Смирнов, Гурген Джанибекян, Леонид Енгибаров, Фауста Иванова, Зоя Исаева, Людмила Карауш, Виталий Комиссаров, Геннадий Крашенинников, Юрий Мартынов, Раднэр Муратов, Владимир Пицек, Владимир Протасенко, Виктория Радунская, Илья Рутберг, Георгиос Совчис, Виолетта Хуснулова, Светлана Швайко, Игорь Ясулович, Валентин Грачёв, Руслан Ахметов, Борис Веселов, Людмила Марченко, Иван Савкин, Константин Худяков, Геннадий Юдин, Владимир Евстафьев .<hr class="post-hr">Описание: Эксцентрическая музыкальная комедия по мотивам известной сказки К.И. Чуковского с элементами цирка и пантомимы, остроумная и изобретательная, о добром докторе Айболите, обезьянке Чичи, собаке Авве, разбойнике Бармалее и его помощниках. Этот яркий остроумный фильм весело и ненавязчиво рассказывает о добре и зле, о справедливости и настоящей дружбе. Рассказывает не только детям, но и взрослым.<hr class="post-hr"> Релиз группы <hr class="post-hr">Качество: DVDRip / рип с DVD5
Формат: MP4
Видео кодек: H.264
Аудио кодек: AAC
Видео: 640x272 AR:2.35 1080 kbps 25 fps
Аудио: 2ch 48 kHz 128 kbps<hr class="post-hr">
avs [info]: 640x272p 1:1 @ 25/1 fps (cfr)
x264 [info]: using SAR=1/1
x264 [info]: using cpu capabilities: MMX2 SSE2Fast SSSE3 SSE4.2 AVX FMA3 AVX2 LZCNT BMI2
x264 [info]: profile High, level 4.1

x264 [info]: frame I:820 Avg QP:19.07 size: 24288
x264 [info]: frame P:34582 Avg QP:22.56 size: 9572
x264 [info]: frame B:105022 Avg QP:24.90 size: 3879
x264 [info]: consecutive B-frames: 2.2% 3.9% 11.5% 38.7% 16.2% 20.5% 3.8% 2.0% 1.3%
x264 [info]: mb I I16..4: 6.8% 70.9% 22.2%
x264 [info]: mb P I16..4: 0.7% 11.3% 2.0% P16..4: 34.3% 32.8% 11.2% 1.8% 0.2% skip: 5.8%
x264 [info]: mb B I16..4: 0.1% 1.7% 0.3% B16..8: 37.4% 21.1% 3.8% direct: 9.8% skip:25.9% L0:43.8% L1:37.7% BI:18.5%
x264 [info]: 8x8 transform intra:80.2% inter:67.8%
x264 [info]: direct mvs spatial:96.6% temporal:3.4%
x264 [info]: coded y,uvDC,uvAC intra: 88.3% 78.4% 44.5% inter: 38.6% 42.6% 4.9%
x264 [info]: i16 v,h,dc,p: 34% 22% 9% 34%
x264 [info]: i8 v,h,dc,ddl,ddr,vr,hd,vl,hu: 6% 8% 6% 10% 15% 13% 16% 11% 15%
x264 [info]: i4 v,h,dc,ddl,ddr,vr,hd,vl,hu: 7% 9% 5% 8% 15% 13% 16% 11% 15%
x264 [info]: i8c dc,h,v,p: 32% 30% 17% 21%
x264 [info]: Weighted P-Frames: Y:47.3% UV:38.7%
x264 [info]: ref P L0: 39.3% 12.1% 15.2% 8.2% 6.0% 4.9% 4.0% 2.6% 2.3% 2.2% 2.1% 1.1% 0.0%
x264 [info]: ref B L0: 70.7% 10.4% 5.9% 3.5% 2.7% 2.3% 1.8% 1.3% 0.9% 0.5%
x264 [info]: ref B L1: 95.3% 4.7%
x264 [info]: kb/s:1080.08

encoded 140424 frames, 22.87 fps, 1080.08 kb/s
GeneralComplete name : D:\Torrents\Айболит 66.1967.DVDRip.x264.640x.rip by Frost O.S.mp4Format : MPEG-4Format profile : Base MediaCodec ID : isom (isom/avc1)File size : 814 MiBDuration : 1 h 33 minOverall bit rate mode : VariableOverall bit rate : 1 216 kb/sMovie name : Айболит 66 1967 DVDRip x264 640x rip by Frost O SDirector : Ролан БыковActor : Олег Ефремов / Ролан Быков / Лидия Князева / Евгений Васильев / Фрунзе Мкртчян / Алексей Смирнов / Гурген Джанибекян / Леонид Енгибаров / Фауста Иванова / Зоя Исаева / Людмила Карауш / Виталий Комиссаров / Геннадий Крашенинников / Юрий Мартынов / Раднэр Муратов / Владимир Пицек / Владимир Протасенко / Виктория Радунская / Илья Рутберг / Георгиос Совчис / Виолетта Хуснулова / Светлана Швайко / Игорь Ясулович / Валентин Грачёв / Руслан Ахметов / Борис Веселов / Людмила Марченко / Иван Савкин / Константин Худяков / Геннадий Юдин / Владимир ЕвстафьевGenre : Children'sContentType : Short FilmEncoded date : UTC 2017-05-08 10:49:53Tagged date : UTC 2017-05-08 10:50:44Writing application : MkvToMp4 version: 0.224 (x64)Cover : YesComment : rip by Frost O.SLongDescription : Эксцентрическая музыкальная комедия по мотивам известной сказки К.И. Чуковского с элементами цирка и пантомимы, остроумная и изобретательная, о добром докторе Айболите, обезьянке Чичи, собаке Авве, разбойнике Бармалее и его помощниках. Этот яркий остроумный фильм весело и ненавязчиво рассказывает о добре и зле, о справедливости и настоящей дружбе. Рассказывает не только детям, но и взрослым.

VideoID : 1Format : AVCFormat/Info : Advanced Video CodecFormat profile : [email protected] settings, CABAC : YesFormat settings, ReFrames : 11 framesCodec ID : avc1Codec ID/Info : Advanced Video CodingDuration : 1 h 33 minBit rate : 1 080 kb/sMaximum bit rate : 4 028 kb/sWidth : 640 pixelsHeight : 272 pixelsDisplay aspect ratio : 2.35:1Frame rate mode : ConstantFrame rate : 25.000 FPSColor space : YUVChroma subsampling : 4:2:0Bit depth : 8 bitsScan type : ProgressiveBits/(Pixel*Frame) : 0.248Stream size : 723 MiB (89%)Writing library : x264 core 148 r2744 b97ae06Encoding settings : cabac=1 / ref=11 / deblock=1:-1:-1 / analyse=0x3:0x133 / me=umh / subme=11 / psy=1 / psy_rd=1.00:0.00 / mixed_ref=1 / me_range=48 / chroma_me=1 / trellis=2 / 8x8dct=1 / cqm=0 / deadzone=21,11 / fast_pskip=0 / chroma_qp_offset=-2 / threads=6 / lookahead_threads=1 / sliced_threads=0 / nr=0 / decimate=0 / interlaced=0 / bluray_compat=0 / constrained_intra=0 / bframes=8 / b_pyramid=2 / b_adapt=2 / b_bias=0 / direct=3 / weightb=1 / open_gop=0 / weightp=2 / keyint=250 / keyint_min=25 / scenecut=40 / intra_refresh=0 / rc=2pass / mbtree=0 / bitrate=1080 / ratetol=1.0 / qcomp=0.65 / qpmin=0 / qpmax=69 / qpstep=4 / cplxblur=20.0 / qblur=0.5 / ip_ratio=1.40 / pb_ratio=1.30 / aq=1:0.80Language : EnglishEncoded date : UTC 2017-05-08 10:49:53Tagged date : UTC 2017-05-08 10:50:11Color range : LimitedColor primaries : BT.601 PALTransfer characteristics : BT.470 System B, BT.470 System GMatrix coefficients : BT.601

AudioID : 2Format : AACFormat/Info : Advanced Audio CodecFormat profile : LCCodec ID : 40Duration : 1 h 33 minBit rate mode : VariableBit rate : 128 kb/sMaximum bit rate : 135 kb/sChannel(s) : 2 channelsChannel positions : Front: L RSampling rate : 48.0 kHzFrame rate : 46.875 FPS (1024 spf)Compression mode : LossyStream size : 85.7 MiB (11%)Language : RussianDefault : YesAlternate group : 1Encoded date : UTC 2017-05-08 10:50:03Tagged date : UTC 2017-05-08 10:50:11


Трекер:  [ 08-Май-2017 13:00 ]

  

Скачать .torrent

Размер .torrent файла 16 KB


Размер: 814 MB
Хэш (hash) релиза: 7283e35f1222ebc9dd54a76a5af86dbadb11bafb

Еще никто не оставлял запись к записи скачать торрент [VIDEO] Айболит-66 . Будь первым!

!Обратная связь