Download | Ultraslideshow Flash Creator Professional 1.54 | HD Views: 296 Force 2(2016)

Скачать порно через торрент [Pantyamateur.com] Scarlet H Minipack x18 UnionPeer.org бесплатно онлайн HD качество

Скачать новое порно 2015, 2014 новинки через торрент UnionPeer.org

Порно торрент бесплатно ЮнионПир.орг

Статистика раздачи
Размер:  5.97 GB   |    Зарегистрирован:  1 год 2 месяца   |    .torrent скачан:  169 раз   |   
Раздают:  1  
   
загрузка...
 
Автор Сообщение

Galfimbul

avatar Galfimbul


[Pantyamateur.com ] Scarlet H Minipack PM,SSF,SUG,UKUS x18 4K, 1080P / Scarlet H

Год производства: 2017 г.
Жанр: Solo Fetish
Студия: Pantyamateur.com

Описание: http://pantyamateur.com/showgal.php?g=groups/7185/15_1&s=85
http://pantymaniacs.com/showgal.php?g=groups/13003/44_1&s=192
http://ukupskirts.com/showgal.php?g=groups/12997/53_1&s=225
http://skirtsupgirls.com/showgal.php?g=groups/12904/26_1&s=138
http://satinsilkfun.com/showgal.php?g=groups/12949/5_1&s=31

Тип HD видео: 1080p
Качество видео: WEB-DL
Формат видео: WMV
Видео: Windows Media Video 9 1920x1080 25.00fps 8319 Kbps MPEG-4 3840 x 2160 25.00fps Variable
Аудио: Windows Media Audio 10 stereo Variable AAC Variable
pantyamateur/060317_PA_Scarlet_H.hd.mp4
Format : MPEG-4
Format profile : Base Media / Version 2
Codec ID : mp42 (mp42/mp41)
File size : 508 MiB
Duration : 4mn 57s
Overall bit rate mode : Variable
Overall bit rate : 14.3 Mbps
Encoded date : UTC 2017-01-26 13:49:09
Tagged date : UTC 2017-01-26 13:49:21
©TIM : 00:00:00:00
©TSC : 25
©TSZ : 1

Video
ID : 1
Format : AVC
Format/Info : Advanced Video Codec
Format profile : [email protected]
Format settings, CABAC : Yes
Format settings, ReFrames : 3 frames
Format settings, GOP : M=3, N=25
Codec ID : avc1
Codec ID/Info : Advanced Video Coding
Duration : 4mn 57s
Bit rate mode : Variable
Bit rate : 14.0 Mbps
Maximum bit rate : 20.0 Mbps
Width : 3 840 pixels
Height : 2 160 pixels
Display aspect ratio : 16:9
Frame rate mode : Constant
Frame rate : 25.000 fps
Standard : PAL
Color space : YUV
Chroma subsampling : 4:2:0
Bit depth : 8 bits
Scan type : Progressive
Bits/(Pixel*Frame) : 0.067
Stream size : 496 MiB (98%)
Language : English
Encoded date : UTC 2017-01-26 13:49:09
Tagged date : UTC 2017-01-26 13:49:09
Color range : Limited
Color primaries : BT.709
Transfer characteristics : BT.709
Matrix coefficients : BT.709

Audio
ID : 2
Format : AAC
Format/Info : Advanced Audio Codec
Format profile : LC
Codec ID : 40
Duration : 4mn 57s
Source duration : 4mn 57s
Bit rate mode : Variable
Bit rate : 317 Kbps
Maximum bit rate : 404 Kbps
Channel(s) : 2 channels
Channel positions : Front: L R
Sampling rate : 48.0 KHz
Frame rate : 46.875 fps (1024 spf)
Compression mode : Lossy
Stream size : 11.3 MiB (2%)
Source stream size : 11.3 MiB (2%)
Language : English
Encoded date : UTC 2017-01-26 13:49:09
Tagged date : UTC 2017-01-26 13:49:09
pantyamateur/081016_PA_Scarlet_H.wmv
Format : Windows Media
File size : 312 MiB
Duration : 5mn 16s
Overall bit rate mode : Variable
Overall bit rate : 8 261 Kbps
Maximum Overall bit rate : 10.5 Mbps
Encoded date : UTC 2016-09-20 10:25:41.789

Video
ID : 2
Format : VC-1
Format profile : [email protected]
Codec ID : WMV3
Codec ID/Info : Windows Media Video 9
Codec ID/Hint : WMV3
Description of the codec : Windows Media Video 9 - Professional
Duration : 5mn 16s
Bit rate mode : Variable
Bit rate : 8 000 Kbps
Width : 1 920 pixels
Height : 1 080 pixels
Display aspect ratio : 16:9
Frame rate : 25.000 fps
Bit depth : 8 bits
Compression mode : Lossy
Bits/(Pixel*Frame) : 0.154
Stream size : 302 MiB (97%)
Language : English (GB)
NumberOfFrames : 7905

Audio
ID : 1
Format : WMA
Format profile : Pro
Codec ID : 162
Codec ID/Info : Windows Media Audio
Description of the codec : Windows Media Audio 10 Professional - 440 kbps, 44 kHz, 2 channel 24 bit 2-pass VBR
Duration : 5mn 16s
Bit rate mode : Variable
Bit rate : 405 Kbps
Channel(s) : 2 channels
Sampling rate : 44.1 KHz
Bit depth : 24 bits
Stream size : 15.3 MiB (5%)
Language : English (GB)
NumberOfFrames : 778


Трекер:  [ 07-Май-2017 12:30 ]

  

Скачать .torrent

Размер .torrent файла 121 KB


Размер: 5.97 GB
Хэш (hash) релиза: d1604ad73f9aa6aa375f9617da7cc70f5beb125d

Еще никто не оставлял запись к записи скачать торрент [Pantyamateur.com] Scarlet H Minipack x18 . Будь первым!

!Обратная связь