Bangkok Kung Fu | Боевик | Der verhängnisvolle Autounfall I Never Met the Dead Man

Скачать через торрент [VIDEO] Безумный Макс: Дорога ярости Mad Max: Fury Road бесплатно русская версия torrent активатор

Статистика раздачи
Размер:  551 MB   |    Зарегистрирован:  1 год 2 месяца   |    .torrent скачан:  42 раза   |   
Раздают:  1  
   
загрузка...
 
Автор Сообщение

Galfimbul

avatar Galfimbul


<hr class="post-hr">Безумный Макс: Дорога ярости / Mad Max: Fury Road<hr class="post-hr">«Какой чудесный день»<hr class="post-hr">
<hr class="post-hr">Год выпуска: 2015
Страна: Австралия, США / Village Roadshow Pictures
Жанр: боевик, фантастика, приключения
Продолжительность: 02:00:23
Перевод: русский Профессиональный (полное дублирование) BD CEE
Cубтитры: нет<hr class="post-hr">Режиссер: Джордж Миллер / George Miller<hr class="post-hr">В ролях: Том Харди (Max Rockatansky), Шарлиз Терон (Imperator Furiosa), Николас Холт (Nux), Хью Кияс-Бёрн (Immortan Joe), Райли Кио (Capable), Роузи Хантингтон-Уайтли (The Splendid Angharad), Зои Кравиц (Toast the Knowing), Эбби Ли (The Dag), Кортни Итон (Cheedo the Fragile), Нэйтан Джонс (Rictus Erectus), Джош Хелман (Slit), Джон Ховард (The People Eater) и другие .<hr class="post-hr">Описание: Преследуемый призраками беспокойного прошлого, Макс уверен, что лучший способ выжить — скитаться в одиночестве. Несмотря на это, он присоединяется к бунтарям, бегущим через всю пустыню на боевой фуре, под предводительством военачальника Фуриосы.
Они пытаются сбежать из Цитадели, страдающей от тирании Несмертного Джо, у которого они забрали кое-что очень ценное. Разъярённый военачальник бросает все свои силы на погоню за мятежниками, ступая на дорогу войны — дорогу ярости.<hr class="post-hr"> Релиз группы <hr class="post-hr">Качество: HDRip / рип с BDRip 720p
Формат: MP4
Видео кодек: XviD
Аудио кодек: AAC
Видео: 480x200 AR:2.40 504 kbps 23.976 fps
Аудио: [Russian] 2ch 48 kHz 128 kbps - [DUB] Профессиональный (полное дублирование) BD CEE<hr class="post-hr">
GeneralComplete name : D:\Torrents\Mad Max Fury Road.2015.HDRip.XviD.480x.rip by Frost O.S.mp4Format : MPEG-4Format profile : Base MediaCodec ID : isom (isom/iso2)File size : 551 MiBDuration : 2 h 0 minOverall bit rate mode : VariableOverall bit rate : 640 kb/sMovie name : Mad Max Fury Road 2015 HDRip XviD 480x rip by Frost O SDirector : Джордж Миллер / George MillerActor : Том Харди (Max Rockatansky) / Шарлиз Терон (Imperator Furiosa) / Николас Холт (Nux) / Хью Кияс-Бёрн (Immortan Joe) / Райли Кио (Capable) / Роузи Хантингтон-Уайтли (The Splendid Angharad) / Зои Кравиц (Toast the Knowing) / Эбби Ли (The Dag) / Кортни Итон (Cheedo the Fragile) / Нэйтан Джонс (Rictus Erectus) / Джош Хелман (Slit) / Джон Ховард (The People Eater)Genre : ActionContentType : Short FilmEncoded date : UTC 2017-05-05 18:59:34Tagged date : UTC 2017-05-05 19:00:53Writing application : MkvToMp4 version: 0.224 (x64)Cover : YesComment : rip by Frost O.SLongDescription : Преследуемый призраками беспокойного прошлого, Макс уверен, что лучший способ выжить — скитаться в одиночестве. Несмотря на это, он присоединяется к бунтарям, бегущим через всю пустыню на боевой фуре, под предводительством военачальника Фуриосы. Они пытаются сбежать из Цитадели, страдающей от тирании Несмертного Джо, у которого они забрали кое-что очень ценное. Разъярённый военачальник бросает все свои силы на погоню за мятежниками, ступая на дорогу войны — дорогу ярости.

VideoID : 1Format : MPEG-4 VisualFormat profile : Advanced [email protected] settings, BVOP : YesFormat settings, QPel : YesFormat settings, GMC : No warppointsFormat settings, Matrix : CustomCodec ID : 20Duration : 2 h 0 minBit rate mode : VariableBit rate : 504 kb/sMaximum bit rate : 3 404 kb/sWidth : 480 pixelsHeight : 200 pixelsDisplay aspect ratio : 2.40:1Frame rate mode : ConstantFrame rate : 23.976 (24000/1001) FPSOriginal frame rate : 23.976 (23976/1000) FPSColor space : YUVChroma subsampling : 4:2:0Bit depth : 8 bitsScan type : ProgressiveCompression mode : LossyBits/(Pixel*Frame) : 0.219Stream size : 434 MiB (79%)Title : avi_GPAC0.5.2_DEV_rev248_g39d5978_masterWriting library : XviD 1.2.1 (UTC 2008-12-04)Language : EnglishTagged date : UTC 2017-05-05 19:00:06

AudioID : 2Format : AACFormat/Info : Advanced Audio CodecFormat profile : LCCodec ID : 40Duration : 2 h 0 minBit rate mode : VariableBit rate : 128 kb/sMaximum bit rate : 135 kb/sChannel(s) : 2 channelsChannel positions : Front: L RSampling rate : 48.0 kHzFrame rate : 46.875 FPS (1024 spf)Compression mode : LossyStream size : 110 MiB (20%)Title : Dub_ BD CEE / Dub_ BD CEELanguage : RussianDefault : YesAlternate group : 1Encoded date : UTC 2017-05-05 19:00:03Tagged date : UTC 2017-05-05 19:00:06


Трекер:  [ 05-Май-2017 21:30 ]

  

Скачать .torrent

Размер .torrent файла 11 KB


Размер: 551 MB
Хэш (hash) релиза: b3ccd3fce5314a2fb1113dc5cb3244d52c224419

Торренты, похожие на [VIDEO] Безумный Макс: Дорога ярости Mad Max: Fury Road скачать торрент

Форум Название Автор Размер S L Добавлен
Видео (Фильмы/Клипы) ·· [VIDEO] Безумный Макс: Дорога ярости / Mad Max: Fury Road (Джордж Миллер / George Miller) [2015, боевик, фантастика, приключения, BDRip] [MP4, 960x] Galfimbul 27615228142.57 GB 0 0 1494006492

20:48

5-Май-17

Видео (Фильмы/Клипы) ·· [VIDEO] Безумный Макс: Дорога ярости / Mad Max: Fury Road (Джордж Миллер / George Miller) [2015, боевик, фантастика, приключения, BDRip] [MP4, 1280x] Galfimbul 28505227512.65 GB 0 0 1480193319

23:48

26-Ноя-16

Еще никто не оставлял запись к записи скачать торрент [VIDEO] Безумный Макс: Дорога ярости Mad Max: Fury Road . Будь первым!

!Обратная связь