2 osób ma urodziny | Temporada 3 | The Looming Tower HDTV

Скачать через торрент [VIDEO] Безумный Макс: Дорога ярости Mad Max: Fury Road бесплатно русская версия torrent активатор

Статистика раздачи
Размер:  2.57 GB   |    Зарегистрирован:  1 год 2 месяца   |    .torrent скачан:  38 раз   |   
Раздают:  1  
   
загрузка...
 
Автор Сообщение

Galfimbul

avatar Galfimbul


<hr class="post-hr">Безумный Макс: Дорога ярости / Mad Max: Fury Road<hr class="post-hr">«Какой чудесный день»<hr class="post-hr">
<hr class="post-hr">Год выпуска: 2015
Страна: Австралия, США / Village Roadshow Pictures
Жанр: боевик, фантастика, приключения
Продолжительность: 02:00:23
Перевод №1: русский Профессиональный (полное дублирование) BD CEE
Перевод №2: украинский Профессиональный (полное дублирование) DVD R5
Перевод №3: русский Профессиональный (многоголосый, закадровый) Студия «Омикрон»
Перевод №4: русский Авторский (одноголосый, закадровый) Андрей Гаврилов
Перевод №5: русский Авторский (одноголосый, закадровый) Юрий Сербин
Перевод №6: русский Авторский (одноголосый, закадровый) Леонид Володарский
Перевод №7: русский Авторский (одноголосый, закадровый) Антон Карповский
Перевод №8: русский Одноголосый (закадровый) Дмитрий Есарев
Перевод №9: русский Одноголосый (закадровый) Алексей Матвеев
Оригинальная дорожка: Есть
Cубтитры: Русские (4 вида; BD CEE, А. Матвеев, 2x Notabenoid + форсированные), Украинские (форсированные), Английские (полные, SDH, SDH-Colored)<hr class="post-hr">Режиссер: Джордж Миллер / George Miller<hr class="post-hr">В ролях: Том Харди (Max Rockatansky), Шарлиз Терон (Imperator Furiosa), Николас Холт (Nux), Хью Кияс-Бёрн (Immortan Joe), Райли Кио (Capable), Роузи Хантингтон-Уайтли (The Splendid Angharad), Зои Кравиц (Toast the Knowing), Эбби Ли (The Dag), Кортни Итон (Cheedo the Fragile), Нэйтан Джонс (Rictus Erectus), Джош Хелман (Slit), Джон Ховард (The People Eater) и другие .<hr class="post-hr">Описание: Преследуемый призраками беспокойного прошлого, Макс уверен, что лучший способ выжить — скитаться в одиночестве. Несмотря на это, он присоединяется к бунтарям, бегущим через всю пустыню на боевой фуре, под предводительством военачальника Фуриосы.
Они пытаются сбежать из Цитадели, страдающей от тирании Несмертного Джо, у которого они забрали кое-что очень ценное. Разъярённый военачальник бросает все свои силы на погоню за мятежниками, ступая на дорогу войны — дорогу ярости.<hr class="post-hr"> Релиз группы <hr class="post-hr">Качество: BDRip / рип с Blu-ray disc 1080p CEE
Формат: MP4
Видео кодек: H.264
Аудио кодек: AAC
Видео: 960x400 AR:2.40 1740 kbps 23.976 fps
Аудио №1: [Russian] 2ch 48 kHz 128 kbps - [DUB] Профессиональный (полное дублирование) BD CEE
Аудио №2: [Ukrainian] 2ch 48 kHz 128 kbps - [DUB] Профессиональный (полное дублирование) DVD R5
Аудио №3: [Russian] 2ch 48 kHz 128 kbps - [MVO] Профессиональный (многоголосый, закадровый) Студия «Омикрон»
Аудио №4: [Russian] 2ch 48 kHz 128 kbps - [VO] Авторский (одноголосый, закадровый) Андрей Гаврилов
Аудио №5: [Russian] 2ch 48 kHz 128 kbps - [VO] Авторский (одноголосый, закадровый) Юрий Сербин
Аудио №6: [Russian] 2ch 48 kHz 128 kbps - [VO] Авторский (одноголосый, закадровый) Леонид Володарский
Аудио №7: [Russian] 2ch 48 kHz 128 kbps - [VO] Авторский (одноголосый, закадровый) Антон Карповский
Аудио №8: [Russian] 2ch 48 kHz 128 kbps - [VO] Одноголосый (закадровый) Дмитрий Есарев
Аудио №9: [Russian] 2ch 48 kHz 128 kbps - [VO] Одноголосый (закадровый) Алексей Матвеев
Аудио №10: [English] 2ch 48 kHz 128 kbps - Оригинал (английский)<hr class="post-hr">
avs [info]: 960x400p 1:1 @ 2997/125 fps (cfr)
x264 [info]: using SAR=1/1
x264 [info]: using cpu capabilities: MMX2 SSE2Fast SSSE3 SSE4.2 AVX FMA3 AVX2 LZCNT BMI2
x264 [info]: profile High, level 4.1

x264 [info]: frame I:1658 Avg QP:19.01 size: 54515
x264 [info]: frame P:47825 Avg QP:22.58 size: 16329
x264 [info]: frame B:123705 Avg QP:24.49 size: 5640
x264 [info]: consecutive B-frames: 4.9% 6.1% 16.8% 31.5% 17.3% 17.1% 3.1% 3.4%
x264 [info]: mb I I16..4: 8.2% 65.1% 26.6%
x264 [info]: mb P I16..4: 1.6% 11.0% 2.5% P16..4: 33.6% 34.8% 10.1% 0.0% 0.0% skip: 6.4%
x264 [info]: mb B I16..4: 0.2% 1.3% 0.3% B16..8: 36.3% 19.5% 3.4% direct: 4.5% skip:34.5% L0:44.0% L1:44.9% BI:11.0%
x264 [info]: 8x8 transform intra:71.9% inter:60.5%
x264 [info]: direct mvs spatial:96.7% temporal:3.3%
x264 [info]: coded y,uvDC,uvAC intra: 81.4% 80.1% 51.9% inter: 23.1% 21.0% 7.3%
x264 [info]: i16 v,h,dc,p: 12% 19% 5% 64%
x264 [info]: i8 v,h,dc,ddl,ddr,vr,hd,vl,hu: 5% 6% 5% 11% 17% 14% 17% 11% 15%
x264 [info]: i4 v,h,dc,ddl,ddr,vr,hd,vl,hu: 8% 7% 5% 9% 15% 14% 15% 11% 15%
x264 [info]: i8c dc,h,v,p: 34% 27% 17% 22%
x264 [info]: Weighted P-Frames: Y:16.8% UV:11.4%
x264 [info]: ref P L0: 51.4% 13.2% 14.5% 6.7% 5.3% 3.6% 2.8% 2.0% 0.4% 0.1%
x264 [info]: ref B L0: 79.3% 9.1% 5.1% 2.5% 2.1% 1.4% 0.6%
x264 [info]: ref B L1: 95.6% 4.4%
x264 [info]: kb/s:1737.76

encoded 173188 frames, 15.96 fps, 1737.76 kb/s
GeneralComplete name : D:\Torrents\Mad Max Fury Road.2015.BDRip.x264.960x.rip by Frost O.S.mp4Format : MPEG-4Format profile : Base MediaCodec ID : isom (isom/avc1/iso2)File size : 2.57 GiBDuration : 2 h 0 minOverall bit rate mode : VariableOverall bit rate : 3 058 kb/sMovie name : Mad Max Fury Road 2015 BDRip x264 960x rip by Frost O SDirector : Джордж Миллер / George MillerActor : Том Харди (Max Rockatansky) / Шарлиз Терон (Imperator Furiosa) / Николас Холт (Nux) / Хью Кияс-Бёрн (Immortan Joe) / Райли Кио (Capable) / Роузи Хантингтон-Уайтли (The Splendid Angharad) / Зои Кравиц (Toast the Knowing) / Эбби Ли (The Dag) / Кортни Итон (Cheedo the Fragile) / Нэйтан Джонс (Rictus Erectus) / Джош Хелман (Slit) / Джон Ховард (The People Eater)Genre : ActionContentType : Short FilmEncoded date : UTC 2017-05-05 17:00:51Tagged date : UTC 2017-05-05 17:10:16Writing application : MkvToMp4 version: 0.224 (x64)Cover : YesComment : rip by Frost O.SLongDescription : Преследуемый призраками беспокойного прошлого, Макс уверен, что лучший способ выжить — скитаться в одиночестве. Несмотря на это, он присоединяется к бунтарям, бегущим через всю пустыню на боевой фуре, под предводительством военачальника Фуриосы. Они пытаются сбежать из Цитадели, страдающей от тирании Несмертного Джо, у которого они забрали кое-что очень ценное. Разъярённый военачальник бросает все свои силы на погоню за мятежниками, ступая на дорогу войны — дорогу ярости.

VideoID : 1Format : AVCFormat/Info : Advanced Video CodecFormat profile : [email protected] settings, CABAC : YesFormat settings, ReFrames : 8 framesCodec ID : avc1Codec ID/Info : Advanced Video CodingDuration : 2 h 0 minBit rate : 1 740 kb/sMaximum bit rate : 7 668 kb/sWidth : 960 pixelsHeight : 400 pixelsDisplay aspect ratio : 2.40:1Frame rate mode : ConstantFrame rate : 23.976 (24000/1001) FPSOriginal frame rate : 23.976 (23976/1000) FPSColor space : YUVChroma subsampling : 4:2:0Bit depth : 8 bitsScan type : ProgressiveBits/(Pixel*Frame) : 0.189Stream size : 1.46 GiB (57%)Writing library : x264 core 148 r2744 b97ae06Encoding settings : cabac=1 / ref=8 / deblock=1:-1:-1 / analyse=0x3:0x113 / me=umh / subme=11 / psy=1 / psy_rd=1.00:0.00 / mixed_ref=1 / me_range=32 / chroma_me=1 / trellis=2 / 8x8dct=1 / cqm=0 / deadzone=21,11 / fast_pskip=0 / chroma_qp_offset=-2 / threads=6 / lookahead_threads=1 / sliced_threads=0 / nr=0 / decimate=0 / interlaced=0 / bluray_compat=0 / constrained_intra=0 / bframes=7 / b_pyramid=2 / b_adapt=2 / b_bias=0 / direct=3 / weightb=1 / open_gop=0 / weightp=2 / keyint=250 / keyint_min=23 / scenecut=40 / intra_refresh=0 / rc=2pass / mbtree=0 / bitrate=1740 / ratetol=1.0 / qcomp=0.65 / qpmin=0 / qpmax=69 / qpstep=4 / cplxblur=20.0 / qblur=0.5 / ip_ratio=1.40 / pb_ratio=1.30 / aq=1:0.90Language : EnglishEncoded date : UTC 2017-05-05 17:00:51Tagged date : UTC 2017-05-05 17:02:50Color range : LimitedColor primaries : BT.709Transfer characteristics : BT.709Matrix coefficients : BT.709

Audio #1ID : 2Format : AACFormat/Info : Advanced Audio CodecFormat profile : LCCodec ID : 40Duration : 2 h 0 minBit rate mode : VariableBit rate : 128 kb/sMaximum bit rate : 135 kb/sChannel(s) : 2 channelsChannel positions : Front: L RSampling rate : 48.0 kHzFrame rate : 46.875 FPS (1024 spf)Compression mode : LossyStream size : 110 MiB (4%)Title : Dub_ BD CEE / Dub_ BD CEELanguage : RussianDefault : YesAlternate group : 1Encoded date : UTC 2017-05-05 17:01:36Tagged date : UTC 2017-05-05 17:02:50

Audio #2ID : 3Format : AACFormat/Info : Advanced Audio CodecFormat profile : LCCodec ID : 40Duration : 2 h 0 minBit rate mode : VariableBit rate : 128 kb/sMaximum bit rate : 135 kb/sChannel(s) : 2 channelsChannel positions : Front: L RSampling rate : 48.0 kHzFrame rate : 46.875 FPS (1024 spf)Compression mode : LossyStream size : 110 MiB (4%)Title : Dub_ DVD R5 / Dub_ DVD R5Language : UkrainianDefault : NoAlternate group : 1Encoded date : UTC 2017-05-05 17:01:45Tagged date : UTC 2017-05-05 17:02:50

Audio #3ID : 4Format : AACFormat/Info : Advanced Audio CodecFormat profile : LCCodec ID : 40Duration : 2 h 0 minBit rate mode : VariableBit rate : 128 kb/sMaximum bit rate : 135 kb/sChannel(s) : 2 channelsChannel positions : Front: L RSampling rate : 48.0 kHzFrame rate : 46.875 FPS (1024 spf)Compression mode : LossyStream size : 110 MiB (4%)Title : MVO_ Studiya _Omicron_ / MVO_ Studiya _Omicron_Language : RussianDefault : NoAlternate group : 1Encoded date : UTC 2017-05-05 17:01:52Tagged date : UTC 2017-05-05 17:02:50

Audio #4ID : 5Format : AACFormat/Info : Advanced Audio CodecFormat profile : LCCodec ID : 40Duration : 2 h 0 minBit rate mode : VariableBit rate : 128 kb/sMaximum bit rate : 135 kb/sChannel(s) : 2 channelsChannel positions : Front: L RSampling rate : 48.0 kHzFrame rate : 46.875 FPS (1024 spf)Compression mode : LossyStream size : 110 MiB (4%)Title : VO_ Gavrilov / VO_ GavrilovLanguage : RussianDefault : NoAlternate group : 1Encoded date : UTC 2017-05-05 17:01:59Tagged date : UTC 2017-05-05 17:02:50

Audio #5ID : 6Format : AACFormat/Info : Advanced Audio CodecFormat profile : LCCodec ID : 40Duration : 2 h 0 minBit rate mode : VariableBit rate : 128 kb/sMaximum bit rate : 135 kb/sChannel(s) : 2 channelsChannel positions : Front: L RSampling rate : 48.0 kHzFrame rate : 46.875 FPS (1024 spf)Compression mode : LossyStream size : 110 MiB (4%)Title : VO_ Serbin / VO_ SerbinLanguage : RussianDefault : NoAlternate group : 1Encoded date : UTC 2017-05-05 17:02:07Tagged date : UTC 2017-05-05 17:02:50

Audio #6ID : 7Format : AACFormat/Info : Advanced Audio CodecFormat profile : LCCodec ID : 40Duration : 2 h 0 minBit rate mode : VariableBit rate : 128 kb/sMaximum bit rate : 135 kb/sChannel(s) : 2 channelsChannel positions : Front: L RSampling rate : 48.0 kHzFrame rate : 46.875 FPS (1024 spf)Compression mode : LossyStream size : 110 MiB (4%)Title : VO_ Volodarskiy / VO_ VolodarskiyLanguage : RussianDefault : NoAlternate group : 1Encoded date : UTC 2017-05-05 17:02:14Tagged date : UTC 2017-05-05 17:02:50

Audio #7ID : 8Format : AACFormat/Info : Advanced Audio CodecFormat profile : LCCodec ID : 40Duration : 2 h 0 minBit rate mode : VariableBit rate : 128 kb/sMaximum bit rate : 135 kb/sChannel(s) : 2 channelsChannel positions : Front: L RSampling rate : 48.0 kHzFrame rate : 46.875 FPS (1024 spf)Compression mode : LossyStream size : 110 MiB (4%)Title : VO_ Karpovskiy / VO_ KarpovskiyLanguage : RussianDefault : NoAlternate group : 1Encoded date : UTC 2017-05-05 17:02:21Tagged date : UTC 2017-05-05 17:02:50

Audio #8ID : 9Format : AACFormat/Info : Advanced Audio CodecFormat profile : LCCodec ID : 40Duration : 2 h 0 minBit rate mode : VariableBit rate : 128 kb/sMaximum bit rate : 135 kb/sChannel(s) : 2 channelsChannel positions : Front: L RSampling rate : 48.0 kHzFrame rate : 46.875 FPS (1024 spf)Compression mode : LossyStream size : 110 MiB (4%)Title : VO_ Esarev / VO_ EsarevLanguage : RussianDefault : NoAlternate group : 1Encoded date : UTC 2017-05-05 17:02:28Tagged date : UTC 2017-05-05 17:02:50

Audio #9ID : 10Format : AACFormat/Info : Advanced Audio CodecFormat profile : LCCodec ID : 40Duration : 2 h 0 minBit rate mode : VariableBit rate : 128 kb/sMaximum bit rate : 135 kb/sChannel(s) : 2 channelsChannel positions : Front: L RSampling rate : 48.0 kHzFrame rate : 46.875 FPS (1024 spf)Compression mode : LossyStream size : 110 MiB (4%)Title : VO_ Matveev / VO_ MatveevLanguage : RussianDefault : NoAlternate group : 1Encoded date : UTC 2017-05-05 17:02:35Tagged date : UTC 2017-05-05 17:02:50

Audio #10ID : 11Format : AACFormat/Info : Advanced Audio CodecFormat profile : LCCodec ID : 40Duration : 2 h 0 minBit rate mode : VariableBit rate : 128 kb/sMaximum bit rate : 135 kb/sChannel(s) : 2 channelsChannel positions : Front: L RSampling rate : 48.0 kHzFrame rate : 46.875 FPS (1024 spf)Compression mode : LossyStream size : 110 MiB (4%)Title : Original / OriginalLanguage : EnglishDefault : NoAlternate group : 1Encoded date : UTC 2017-05-05 17:02:42Tagged date : UTC 2017-05-05 17:02:50

Text #1ID : 12Format : Timed TextMuxing mode : sbtlCodec ID : tx3gDuration : 1 h 57 minBit rate mode : VariableBit rate : 0 b/sStream size : 438 Bytes (0%)Title : Forced / ForcedLanguage : RussianDefault : YesForced : NoAlternate group : 2Encoded date : UTC 2017-05-05 17:02:50Tagged date : UTC 2017-05-05 17:02:50

Text #2ID : 13Format : Timed TextMuxing mode : sbtlCodec ID : tx3gDuration : 1 h 57 minBit rate mode : VariableBit rate : 38 b/sStream size : 32.8 KiB (0%)Title : BD CEE / BD CEELanguage : RussianDefault : NoForced : NoAlternate group : 2Encoded date : UTC 2017-05-05 17:02:50Tagged date : UTC 2017-05-05 17:02:50

Text #3ID : 14Format : Timed TextMuxing mode : sbtlCodec ID : tx3gDuration : 1 h 53 minBit rate mode : VariableBit rate : 44 b/sStream size : 36.2 KiB (0%)Title : A. Matveev / A. MatveevLanguage : RussianDefault : NoForced : NoAlternate group : 2Encoded date : UTC 2017-05-05 17:02:50Tagged date : UTC 2017-05-05 17:02:50

Text #4ID : 15Format : Timed TextMuxing mode : sbtlCodec ID : tx3gDuration : 1 h 51 minBit rate mode : VariableBit rate : 43 b/sStream size : 34.8 KiB (0%)Title : Notabenoid / NotabenoidLanguage : RussianDefault : NoForced : NoAlternate group : 2Encoded date : UTC 2017-05-05 17:02:50Tagged date : UTC 2017-05-05 17:02:50

Text #5ID : 16Format : Timed TextMuxing mode : sbtlCodec ID : tx3gDuration : 1 h 51 minBit rate mode : VariableBit rate : 46 b/sStream size : 37.9 KiB (0%)Title : Notabenoid 2 / Notabenoid 2Language : RussianDefault : NoForced : NoAlternate group : 2Encoded date : UTC 2017-05-05 17:02:50Tagged date : UTC 2017-05-05 17:02:50

Text #6ID : 17Format : Timed TextMuxing mode : sbtlCodec ID : tx3gDuration : 1 h 57 minBit rate mode : VariableBit rate : 1 b/sStream size : 540 Bytes (0%)Title : Forced / ForcedLanguage : UkrainianDefault : NoForced : NoAlternate group : 2Encoded date : UTC 2017-05-05 17:02:50Tagged date : UTC 2017-05-05 17:02:50

Text #7ID : 18Format : Timed TextMuxing mode : sbtlCodec ID : tx3gDuration : 1 h 51 minBit rate mode : VariableBit rate : 28 b/sStream size : 23.1 KiB (0%)Title : Full / FullLanguage : EnglishDefault : NoForced : NoAlternate group : 2Encoded date : UTC 2017-05-05 17:02:50Tagged date : UTC 2017-05-05 17:02:50

Text #8ID : 19Format : Timed TextMuxing mode : sbtlCodec ID : tx3gDuration : 1 h 51 minBit rate mode : VariableBit rate : 35 b/sStream size : 28.6 KiB (0%)Title : SDH / SDHLanguage : EnglishDefault : NoForced : NoAlternate group : 2Encoded date : UTC 2017-05-05 17:02:50Tagged date : UTC 2017-05-05 17:02:50

Text #9ID : 20Format : Timed TextMuxing mode : sbtlCodec ID : tx3gDuration : 1 h 51 minBit rate mode : VariableBit rate : 50 b/sStream size : 41.4 KiB (0%)Title : SDH_Colored / SDH_ColoredLanguage : EnglishDefault : NoForced : NoAlternate group : 2Encoded date : UTC 2017-05-05 17:02:50Tagged date : UTC 2017-05-05 17:02:50


Трекер:  [ 05-Май-2017 19:30 ]

  

Скачать .torrent

Размер .torrent файла 13 KB


Размер: 2.57 GB
Хэш (hash) релиза: eda296644b0f2270a4ee0f623a95606b40889b96

Еще никто не оставлял запись к записи скачать торрент [VIDEO] Безумный Макс: Дорога ярости Mad Max: Fury Road . Будь первым!

!Обратная связь