597773 brock lesnar vs big show royal rumble shawn xxx montada com | ver Nico 1988 2017 megashare línea gratis | Papa no Iukoto o Kikinasai

Скачать через торрент [MULT] Властелин колец The Lord of the Rings бесплатно русская версия torrent активатор

Статистика раздачи
Размер:  1.87 GB   |    Зарегистрирован:  1 год 2 месяца   |    .torrent скачан:  23 раза   |   
Раздают:  1  
   
загрузка...
 
Автор Сообщение

Galfimbul

avatar Galfimbul


Властелин колец / The Lord of the Rings<hr class="post-hr">«From J.R.R. Tolkien's Magical The Lord of the Rings Trilogy»<hr class="post-hr">
<hr class="post-hr">Год выпуска: 1978
Страна: США
Жанр: фэнтези, драма, приключения, мультфильм
Продолжительность: 02:13:20
Перевод: Русский Профессиональный (многоголосый, закадровый)
Оригинальная дорожка: Есть
Cубтитры: русские (Full), английские (Full)<hr class="post-hr">Режиссер: Ральф Бакши / Ralph Bakshi<hr class="post-hr">Роли озвучивали: Кристофер Гард (Frodo, озвучка), Уильям Скуайр (Gandalf, озвучка), Майкл Скоулс (Sam, озвучка), Джон Хёрт (Aragorn, озвучка), Саймон Чэндлер (Merry, озвучка), Доминик Гард (Pippin, озвучка), Норман Бёрд (Bilbo, озвучка), Майкл Грэм Кокс (Boromir, озвучка), Энтони Дэниелс (Legolas, озвучка), Дэвид Бак (Gimli, озвучка) и другие .<hr class="post-hr">Описание: Сказания Средиземья - это хроника Великой войны за Кольцо, войны, длившейся не одну тысячу лет. Тот, кто владел Кольцом, получал власть над всеми живыми тварями, но был обязан служить злу. Хоббит Фродо призван уничтожить Кольцо. Он отправился за ним в Мордор и на огненную Гору Судьбы вместе с союзниками - эльфами, гномами, людьми и хоббитами.
«Властелин колец» повествует о борьбе добра и зла, сохраняя сказочную атмосферу классики жанра «фэнтези» - трилогии Дж. Р. Р. Толкиена.<hr class="post-hr"> Релиз группы <hr class="post-hr">Качество: HDRip / рип с BDRip 720p
Формат: MP4
Видео кодек: H.264
Аудио кодек: AAC
Видео: 960х540 AR:1.78 1740 kbps 23.976 fps
Аудио №1: [Russian] 2ch 48 kHz 128 kbps - Профессиональный (многоголосый, закадровый)
Аудио №2: [English] 2ch 48 kHz 128 kbps - Оригинал<hr class="post-hr">
avs [info]: 960x540p 1:1 @ 2997/125 fps (cfr)
x264 [info]: using SAR=1/1
x264 [info]: using cpu capabilities: MMX2 SSE2Fast SSSE3 SSE4.2 AVX FMA3 AVX2 LZCNT BMI2
x264 [info]: profile High, level 4.1

x264 [info]: frame I:1515 Avg QP:20.15 size: 71546
x264 [info]: frame P:44572 Avg QP:22.51 size: 18257
x264 [info]: frame B:145722 Avg QP:24.10 size: 5610
x264 [info]: consecutive B-frames: 2.1% 2.5% 7.9% 38.5% 16.3% 24.6% 3.4% 4.1% 0.7%
x264 [info]: mb I I16..4: 3.2% 84.6% 12.2%
x264 [info]: mb P I16..4: 1.0% 8.1% 0.8% P16..4: 51.8% 22.4% 12.6% 0.0% 0.0% skip: 3.3%
x264 [info]: mb B I16..4: 0.1% 0.6% 0.1% B16..8: 41.4% 8.6% 1.9% direct: 4.3% skip:42.9% L0:52.6% L1:44.0% BI: 3.5%
x264 [info]: 8x8 transform intra:82.6% inter:69.0%
x264 [info]: direct mvs spatial:97.1% temporal:2.9%
x264 [info]: coded y,uvDC,uvAC intra: 83.3% 82.3% 60.7% inter: 20.8% 31.1% 13.1%
x264 [info]: i16 v,h,dc,p: 40% 18% 16% 27%
x264 [info]: i8 v,h,dc,ddl,ddr,vr,hd,vl,hu: 6% 5% 6% 12% 17% 15% 15% 12% 12%
x264 [info]: i4 v,h,dc,ddl,ddr,vr,hd,vl,hu: 10% 6% 4% 10% 16% 15% 13% 12% 14%
x264 [info]: i8c dc,h,v,p: 50% 20% 16% 15%
x264 [info]: Weighted P-Frames: Y:16.4% UV:7.4%
x264 [info]: ref P L0: 40.0% 9.5% 17.4% 7.2% 6.7% 4.9% 4.9% 2.4% 2.4% 2.0% 2.2% 0.4% 0.0%
x264 [info]: ref B L0: 60.1% 14.6% 8.4% 4.6% 3.5% 3.1% 2.5% 1.6% 1.1% 0.6%
x264 [info]: ref B L1: 92.6% 7.4%
x264 [info]: kb/s:1739.59

encoded 191809 frames, 17.86 fps, 1739.59 kb/s
GeneralComplete name : D:\Torrents\The Lord of the Rings.1978.HDRip.x264.960x.rip by Frost O.S.mp4Format : MPEG-4Format profile : Base MediaCodec ID : isom (isom/avc1/iso2)File size : 1.87 GiBDuration : 2 h 13 minOverall bit rate mode : VariableOverall bit rate : 2 007 kb/sMovie name : The Lord of the Rings 1978 HDRip x264 960x rip by Frost O SDirector : Ральф Бакши / Ralph BakshiActor : Кристофер Гард (Frodo / озвучка) / Уильям Скуайр (Gandalf / озвучка) / Майкл Скоулс (Sam / озвучка) / Джон Хёрт (Aragorn / озвучка) / Саймон Чэндлер (Merry / озвучка) / Доминик Гард (Pippin / озвучка) / Норман Бёрд (Bilbo / озвучка) / Майкл Грэм Кокс (Boromir / озвучка) / Энтони Дэниелс (Legolas / озвучка) / Дэвид Бак (Gimli / озвучка)Genre : AnimationContentType : Short FilmEncoded date : UTC 2017-05-05 16:38:00Tagged date : UTC 2017-05-05 16:40:50Writing application : MkvToMp4 version: 0.224 (x64)Cover : YesComment : rip by Frost O.SLongDescription : Сказания Средиземья - это хроника Великой войны за Кольцо, войны, длившейся не одну тысячу лет. Тот, кто владел Кольцом, получал власть над всеми живыми тварями, но был обязан служить злу. Хоббит Фродо призван уничтожить Кольцо. Он отправился за ним в Мордор и на огненную Гору Судьбы вместе с союзниками - эльфами, гномами, людьми и хоббитами. «Властелин колец» повествует о борьбе добра и зла, сохраняя сказочную атмосферу классики жанра «фэнтези» - трилогии Дж. Р. Р. Толкиена.

VideoID : 1Format : AVCFormat/Info : Advanced Video CodecFormat profile : [email protected] settings, CABAC : YesFormat settings, ReFrames : 11 framesCodec ID : avc1Codec ID/Info : Advanced Video CodingDuration : 2 h 13 minBit rate : 1 740 kb/sMaximum bit rate : 4 404 kb/sWidth : 960 pixelsHeight : 540 pixelsDisplay aspect ratio : 16:9Frame rate mode : ConstantFrame rate : 23.976 (24000/1001) FPSOriginal frame rate : 23.976 (23976/1000) FPSColor space : YUVChroma subsampling : 4:2:0Bit depth : 8 bitsScan type : ProgressiveBits/(Pixel*Frame) : 0.140Stream size : 1.62 GiB (87%)Writing library : x264 core 148 r2744 b97ae06Encoding settings : cabac=1 / ref=11 / deblock=1:1:1 / analyse=0x3:0x113 / me=umh / subme=9 / psy=1 / psy_rd=0.90:0.00 / mixed_ref=1 / me_range=32 / chroma_me=1 / trellis=2 / 8x8dct=1 / cqm=0 / deadzone=21,11 / fast_pskip=0 / chroma_qp_offset=-2 / threads=6 / lookahead_threads=1 / sliced_threads=0 / nr=0 / decimate=0 / interlaced=0 / bluray_compat=0 / constrained_intra=0 / bframes=8 / b_pyramid=2 / b_adapt=2 / b_bias=0 / direct=3 / weightb=1 / open_gop=0 / weightp=2 / keyint=250 / keyint_min=23 / scenecut=40 / intra_refresh=0 / rc=2pass / mbtree=0 / bitrate=1740 / ratetol=1.0 / qcomp=0.60 / qpmin=0 / qpmax=69 / qpstep=4 / cplxblur=20.0 / qblur=0.5 / ip_ratio=1.40 / pb_ratio=1.30 / aq=1:0.80Language : EnglishEncoded date : UTC 2017-05-05 16:38:00Tagged date : UTC 2017-05-05 16:39:26Color range : LimitedColor primaries : BT.709Transfer characteristics : BT.709Matrix coefficients : BT.709

Audio #1ID : 2Format : AACFormat/Info : Advanced Audio CodecFormat profile : LCCodec ID : 40Duration : 2 h 13 minBit rate mode : VariableBit rate : 128 kb/sMaximum bit rate : 135 kb/sChannel(s) : 2 channelsChannel positions : Front: L RSampling rate : 48.0 kHzFrame rate : 46.875 FPS (1024 spf)Compression mode : LossyStream size : 122 MiB (6%)Title : MVO / MVOLanguage : RussianDefault : YesAlternate group : 1Encoded date : UTC 2017-05-05 16:39:08Tagged date : UTC 2017-05-05 16:39:26

Audio #2ID : 3Format : AACFormat/Info : Advanced Audio CodecFormat profile : LCCodec ID : 40Duration : 2 h 13 minBit rate mode : VariableBit rate : 128 kb/sMaximum bit rate : 135 kb/sChannel(s) : 2 channelsChannel positions : Front: L RSampling rate : 48.0 kHzFrame rate : 46.875 FPS (1024 spf)Compression mode : LossyStream size : 122 MiB (6%)Title : Original / OriginalLanguage : EnglishDefault : NoAlternate group : 1Encoded date : UTC 2017-05-05 16:39:16Tagged date : UTC 2017-05-05 16:39:26

Text #1ID : 4Format : Timed TextMuxing mode : sbtlCodec ID : tx3gDuration : 2 h 10 minBit rate mode : VariableBit rate : 85 b/sStream size : 81.1 KiB (0%)Title : Full / FullLanguage : RussianDefault : YesForced : NoAlternate group : 2Encoded date : UTC 2017-05-05 16:39:26Tagged date : UTC 2017-05-05 16:39:26

Text #2ID : 5Format : Timed TextMuxing mode : sbtlCodec ID : tx3gDuration : 2 h 13 minBit rate mode : VariableBit rate : 57 b/sStream size : 55.6 KiB (0%)Title : Full / FullLanguage : EnglishDefault : NoForced : NoAlternate group : 2Encoded date : UTC 2017-05-05 16:39:26Tagged date : UTC 2017-05-05 16:39:26


Трекер:  [ 05-Май-2017 19:00 ]

  

Скачать .torrent

Размер .torrent файла 19 KB


Размер: 1.87 GB
Хэш (hash) релиза: 5edc76b8aae0e4fd8c53aef9263f504c5eac0b05

Торренты, похожие на [MULT] Властелин колец The Lord of the Rings скачать торрент

Форум Название Автор Размер S L Добавлен
Видео (Фильмы/Клипы) ·· [MULT] Властелин колец / The Lord of the Rings (Ральф Бакши / Ralph Bakshi) [1978, фэнтези, драма, приключения, мультфильм, HDRip] [MP4, 480x] MVO Galfimbul 635536888606 MB 0 0 1493929702

23:28

4-Май-17

Еще никто не оставлял запись к записи скачать торрент [MULT] Властелин колец The Lord of the Rings . Будь первым!

!Обратная связь