Siapa Takut Jatuh Cinta - Episode 300 | Happy Ma | Chapter 455 : She's Wearing It

Скачать через торрент [MULT] Властелин колец The Lord of the Rings бесплатно русская версия torrent активатор

Статистика раздачи
Размер:  606 MB   |    Зарегистрирован:  1 год 2 месяца   |    .torrent скачан:  32 раза   |   
Раздают:  1  
   
загрузка...
 
Автор Сообщение

Galfimbul

avatar Galfimbul


Властелин колец / The Lord of the Rings<hr class="post-hr">«From J.R.R. Tolkien's Magical The Lord of the Rings Trilogy»<hr class="post-hr">
<hr class="post-hr">Год выпуска: 1978
Страна: США
Жанр: фэнтези, драма, приключения, мультфильм
Продолжительность: 02:13:20
Перевод: Русский Профессиональный (многоголосый, закадровый)
Cубтитры: нет<hr class="post-hr">Режиссер: Ральф Бакши / Ralph Bakshi<hr class="post-hr">Роли озвучивали: Кристофер Гард (Frodo, озвучка), Уильям Скуайр (Gandalf, озвучка), Майкл Скоулс (Sam, озвучка), Джон Хёрт (Aragorn, озвучка), Саймон Чэндлер (Merry, озвучка), Доминик Гард (Pippin, озвучка), Норман Бёрд (Bilbo, озвучка), Майкл Грэм Кокс (Boromir, озвучка), Энтони Дэниелс (Legolas, озвучка), Дэвид Бак (Gimli, озвучка) и другие .<hr class="post-hr">Описание: Сказания Средиземья - это хроника Великой войны за Кольцо, войны, длившейся не одну тысячу лет. Тот, кто владел Кольцом, получал власть над всеми живыми тварями, но был обязан служить злу. Хоббит Фродо призван уничтожить Кольцо. Он отправился за ним в Мордор и на огненную Гору Судьбы вместе с союзниками - эльфами, гномами, людьми и хоббитами.
«Властелин колец» повествует о борьбе добра и зла, сохраняя сказочную атмосферу классики жанра «фэнтези» - трилогии Дж. Р. Р. Толкиена.<hr class="post-hr"> Релиз группы <hr class="post-hr">Качество: HDRip / рип с BDRip 720p
Формат: MP4
Видео кодек: XviD
Аудио кодек: AAC
Видео: 480х272 AR:1.76 499 kbps 23.976 fps
Аудио: [Russian] 2ch 48 kHz 128 kbps - Профессиональный (многоголосый, закадровый)<hr class="post-hr">
GeneralComplete name : D:\Torrents\The Lord of the Rings.1978.HDRip.XviD.480x.rip by Frost O.S.mp4Format : MPEG-4Format profile : Base MediaCodec ID : isom (isom/iso2)File size : 606 MiBDuration : 2 h 13 minOverall bit rate mode : VariableOverall bit rate : 636 kb/sMovie name : The Lord of the Rings 1978 HDRip XviD 480x rip by Frost O SDirector : Ральф Бакши / Ralph BakshiActor : Кристофер Гард (Frodo / озвучка) / Уильям Скуайр (Gandalf / озвучка) / Майкл Скоулс (Sam / озвучка) / Джон Хёрт (Aragorn / озвучка) / Саймон Чэндлер (Merry / озвучка) / Доминик Гард (Pippin / озвучка) / Норман Бёрд (Bilbo / озвучка) / Майкл Грэм Кокс (Boromir / озвучка) / Энтони Дэниелс (Legolas / озвучка) / Дэвид Бак (Gimli / озвучка)Genre : AnimationContentType : Short FilmEncoded date : UTC 2017-05-04 19:12:16Tagged date : UTC 2017-05-04 19:13:18Writing application : MkvToMp4 version: 0.224 (x64)Cover : YesComment : rip by Frost O.SLongDescription : Сказания Средиземья - это хроника Великой войны за Кольцо, войны, длившейся не одну тысячу лет. Тот, кто владел Кольцом, получал власть над всеми живыми тварями, но был обязан служить злу. Хоббит Фродо призван уничтожить Кольцо. Он отправился за ним в Мордор и на огненную Гору Судьбы вместе с союзниками - эльфами, гномами, людьми и хоббитами. «Властелин колец» повествует о борьбе добра и зла, сохраняя сказочную атмосферу классики жанра «фэнтези» - трилогии Дж. Р. Р. Толкиена.

VideoID : 1Format : MPEG-4 VisualFormat profile : Advanced [email protected] settings, BVOP : YesFormat settings, QPel : YesFormat settings, GMC : No warppointsFormat settings, Matrix : CustomCodec ID : 20Duration : 2 h 13 minBit rate mode : VariableBit rate : 499 kb/sMaximum bit rate : 194 Mb/sWidth : 480 pixelsHeight : 272 pixelsDisplay aspect ratio : 16:9Frame rate mode : VariableFrame rate : 23.976 (23976/1000) FPSMinimum frame rate : 11.988 FPSMaximum frame rate : 23.976 FPSColor space : YUVChroma subsampling : 4:2:0Bit depth : 8 bitsScan type : ProgressiveCompression mode : LossyBits/(Pixel*Frame) : 0.160Stream size : 476 MiB (79%)Title : avi_GPAC0.5.2_DEV_rev248_g39d5978_masterWriting library : XviD 1.2.1 (UTC 2008-12-04)Language : EnglishTagged date : UTC 2017-05-04 19:12:39

AudioID : 2Format : AACFormat/Info : Advanced Audio CodecFormat profile : LCCodec ID : 40Duration : 2 h 13 minBit rate mode : VariableBit rate : 128 kb/sMaximum bit rate : 135 kb/sChannel(s) : 2 channelsChannel positions : Front: L RSampling rate : 48.0 kHzFrame rate : 46.875 FPS (1024 spf)Compression mode : LossyStream size : 122 MiB (20%)Title : MVO / MVOLanguage : RussianDefault : YesAlternate group : 1Encoded date : UTC 2017-05-04 19:12:25Tagged date : UTC 2017-05-04 19:12:39


Трекер:  [ 04-Май-2017 22:30 ]

  

Скачать .torrent

Размер .torrent файла 12 KB


Размер: 606 MB
Хэш (hash) релиза: be5716f37beffdcbae814a1272931edd4a4c7d59

Торренты, похожие на [MULT] Властелин колец The Lord of the Rings скачать торрент

Форум Название Автор Размер S L Добавлен
Видео (Фильмы/Клипы) ·· [MULT] Властелин колец / The Lord of the Rings (Ральф Бакши / Ralph Bakshi) [1978, фэнтези, драма, приключения, мультфильм, HDRip] [MP4, 960x] MVO, Original, Sub (rus, eng) Galfimbul 20074380471.87 GB 0 0 1494004465

20:14

5-Май-17

Еще никто не оставлял запись к записи скачать торрент [MULT] Властелин колец The Lord of the Rings . Будь первым!

!Обратная связь