Better Call Saul S03E08 1080p WEB DL DD5 1 H264 RARBG | Photoshoots | Person of Interest

Скачать через торрент [VIDEO] Неприкасаемые 1+1 бесплатно русская версия torrent активатор

Статистика раздачи
Размер:  438 MB   |    Зарегистрирован:  1 год 2 месяца   |    .torrent скачан:  23 раза   |   
Раздают:  1  
   
загрузка...
 
Автор Сообщение

Galfimbul

avatar Galfimbul


<hr class="post-hr">Неприкасаемые / 1+1 / Intouchables<hr class="post-hr">«Sometimes you have to reach into someone else's world to find out what's missing in your own»<hr class="post-hr">
<hr class="post-hr">Год выпуска: 2011
Страна: Франция
Жанр: драма, комедия
Продолжительность: 01:52:02
Перевод: русский Профессиональный (полное дублирование) R5
Cубтитры: нет<hr class="post-hr">Режиссеры: Оливье Накаш / Olivier Nakache, Эрик Толедано / Eric Toledano<hr class="post-hr">В ролях: Франсуа Клюзе / François Cluzet (Philippe), Омар Си / Omar Sy (Driss), Анн Ле Ни / Anne Le Ny (Yvonne), Одри Флеро / Audrey Fleurot (Magalie), Клотильд Молле / Clotilde Mollet (Marcelle), Альба Гайя Крагеде Беллуджи / Alba Gaïa Kraghede Bellugi (Elisa), Сирил Менди / Cyril Mendy (Adama), Кристиан Амери / Christian Ameri (Albert), Грегуар Эстерманн / Grégoire Oestermann (Antoine), Жозефин де Мо / Joséphine de Meaux (La DRH société de courses), Доминик Дагьер / Dominique Daguier (Amie de Philippe), Франсуа Карон / François Caron (Ami de Philippe)<hr class="post-hr">Описание: Пострадав в результате несчастного случая, богатый аристократ Филипп нанимает в помощники человека, который менее всего подходит для этой работы, - молодого жителя предместья Дрисса, только что освободившегося из тюрьмы. Несмотря на то, что Филипп прикован к инвалидному креслу, Дриссу удается привнести в размеренную жизнь аристократа дух приключений.<hr class="post-hr"> Релиз группы <hr class="post-hr">Качество: HDRip / рип с BDRip 720p
Формат: MP4
Видео кодек: XviD
Аудио кодек: AAC
Видео: 480x256 AR:1.88 411 kbps 24.000 fps
Аудио: [Russian] 2ch 48 kHz 128 kbps - [DUB] Профессиональный (полное дублирование) R5<hr class="post-hr">
GeneralComplete name : D:\Torrents\Intouchables.2011.HDRip.XviD.480x.rip by Frost O.S.mp4Format : MPEG-4Format profile : Base MediaCodec ID : isom (isom/iso2)File size : 438 MiBDuration : 1 h 52 minOverall bit rate mode : VariableOverall bit rate : 547 kb/sMovie name : Intouchables 2011 HDRip XviD 480x rip by Frost O SDirector : Оливье Накаш / Olivier Nakache / Эрик Толедано / Eric ToledanoActor : Франсуа Клюзе / François Cluzet (Philippe) / Омар Си / Omar Sy (Driss) / Анн Ле Ни / Anne Le Ny (Yvonne) / Одри Флеро / Audrey Fleurot (Magalie) / Клотильд Молле / Clotilde Mollet (Marcelle) / Альба Гайя Крагеде Беллуджи / Alba Gaïa Kraghede Bellugi (Elisa) / Сирил Менди / Cyril Mendy (Adama) / Кристиан Амери / Christian Ameri (Albert) / Грегуар Эстерманн / Grégoire Oestermann (Antoine) / Жозефин де Мо / Joséphine de Meaux (La DRH société de courses) / Доминик Дагьер / Dominique Daguier (Amie de Philippe) / Франсуа Карон / François Caron (Ami de Philippe)Genre : DramaContentType : Short FilmEncoded date : UTC 2017-05-04 17:04:54Tagged date : UTC 2017-05-04 17:05:24Writing application : MkvToMp4 version: 0.224 (x64)Cover : YesComment : rp by Frost O.SLongDescription : Пострадав в результате несчастного случая, богатый аристократ Филипп нанимает в помощники человека, который менее всего подходит для этой работы, - молодого жителя предместья Дрисса, только что освободившегося из тюрьмы. Несмотря на то, что Филипп прикован к инвалидному креслу, Дриссу удается привнести в размеренную жизнь аристократа дух приключений.

VideoID : 1Format : MPEG-4 VisualFormat profile : Advanced [email protected] settings, BVOP : YesFormat settings, QPel : YesFormat settings, GMC : No warppointsFormat settings, Matrix : CustomCodec ID : 20Duration : 1 h 52 minBit rate mode : VariableBit rate : 411 kb/sMaximum bit rate : 2 560 kb/sWidth : 480 pixelsHeight : 256 pixelsDisplay aspect ratio : 1.85:1Frame rate mode : VariableFrame rate : 24.000 FPSMinimum frame rate : 12.000 FPSMaximum frame rate : 24.000 FPSColor space : YUVChroma subsampling : 4:2:0Bit depth : 8 bitsScan type : ProgressiveCompression mode : LossyBits/(Pixel*Frame) : 0.139Stream size : 329 MiB (75%)Title : avi_GPAC0.5.2_DEV_rev248_g39d5978_masterWriting library : XviD 1.2.1 (UTC 2008-12-04)Language : EnglishTagged date : UTC 2017-05-04 17:05:02

AudioID : 2Format : AACFormat/Info : Advanced Audio CodecFormat profile : LCCodec ID : 40Duration : 1 h 52 minBit rate mode : VariableBit rate : 128 kb/sMaximum bit rate : 135 kb/sChannel(s) : 2 channelsChannel positions : Front: L RSampling rate : 48.0 kHzFrame rate : 46.875 FPS (1024 spf)Compression mode : LossyStream size : 103 MiB (23%)Title : Dub_ R5 / Dub_ R5Language : RussianDefault : YesAlternate group : 1Encoded date : UTC 2017-05-04 17:04:59Tagged date : UTC 2017-05-04 17:05:02


Трекер:  [ 04-Май-2017 19:30 ]

  

Скачать .torrent

Размер .torrent файла 17 KB


Размер: 438 MB
Хэш (hash) релиза: 3a565bd9b9b03444ba40c7a4460f314782ec621f

Еще никто не оставлял запись к записи скачать торрент [VIDEO] Неприкасаемые 1+1 . Будь первым!

!Обратная связь