Eps1 Cj7 HD-720p | DIABOLIK (97) | ByteFence Anti-Malware 3.19 Crack With Serial Key Free Download

Скачать через торрент [VIDEO] Неприкасаемые 1+1 бесплатно русская версия torrent активатор

Статистика раздачи
Размер:  1.77 GB   |    Зарегистрирован:  1 год 2 месяца   |    .torrent скачан:  31 раз   |   
Раздают:  1  
   
загрузка...
 
Автор Сообщение

Galfimbul

avatar Galfimbul


<hr class="post-hr">Неприкасаемые / 1+1 / Intouchables<hr class="post-hr">«Sometimes you have to reach into someone else's world to find out what's missing in your own»<hr class="post-hr">
<hr class="post-hr">Год выпуска: 2011
Страна: Франция
Жанр: драма, комедия
Продолжительность: 01:52:02
Перевод №1: русский Профессиональный (полное дублирование) R5
Перевод №2: русский Профессиональный (двухголосый, закадровый) Ozz TV
Перевод №3: русский Одноголосый (закадровый) zamez
Оригинальная дорожка: Есть
Cубтитры: русские (El Brujo, Татьяны Фалимоновой), английские (Full), французкие (Full)<hr class="post-hr">Режиссеры: Оливье Накаш / Olivier Nakache, Эрик Толедано / Eric Toledano<hr class="post-hr">В ролях: Франсуа Клюзе / François Cluzet (Philippe), Омар Си / Omar Sy (Driss), Анн Ле Ни / Anne Le Ny (Yvonne), Одри Флеро / Audrey Fleurot (Magalie), Клотильд Молле / Clotilde Mollet (Marcelle), Альба Гайя Крагеде Беллуджи / Alba Gaïa Kraghede Bellugi (Elisa), Сирил Менди / Cyril Mendy (Adama), Кристиан Амери / Christian Ameri (Albert), Грегуар Эстерманн / Grégoire Oestermann (Antoine), Жозефин де Мо / Joséphine de Meaux (La DRH société de courses), Доминик Дагьер / Dominique Daguier (Amie de Philippe), Франсуа Карон / François Caron (Ami de Philippe)<hr class="post-hr">Описание: Пострадав в результате несчастного случая, богатый аристократ Филипп нанимает в помощники человека, который менее всего подходит для этой работы, - молодого жителя предместья Дрисса, только что освободившегося из тюрьмы. Несмотря на то, что Филипп прикован к инвалидному креслу, Дриссу удается привнести в размеренную жизнь аристократа дух приключений.<hr class="post-hr"> Релиз группы <hr class="post-hr">Качество: BDRip / рип с BDRemux 1080p
Формат: MP4
Видео кодек: H.264
Аудио кодек: AAC
Видео: 960x540 AR:1.85 1740 kbps 24.000 fps
Аудио №1: [Russian] 2ch 48 kHz 128 kbps - [DUB] Профессиональный (полное дублирование) R5
Аудио №2: [Russian] 2ch 48 kHz 128 kbps - [DVO] Профессиональный (двухголосый, закадровый) Ozz TV
Аудио №3: [Russian] 2ch 48 kHz 128 kbps - [VO] Одноголосый (закадровый) zamez
Аудио №4: [French] 2ch 48 kHz 128 kbps - Оригинал (французский)<hr class="post-hr">
avs [info]: 960x520p 1:1 @ 24/1 fps (cfr)
x264 [info]: using SAR=1/1
x264 [info]: using cpu capabilities: MMX2 SSE2Fast SSSE3 SSE4.2 AVX FMA3 AVX2 LZCNT BMI2
x264 [info]: profile High, level 4.1

x264 [info]: frame I:1275 Avg QP:17.49 size: 68367
x264 [info]: frame P:34503 Avg QP:20.77 size: 19524
x264 [info]: frame B:125551 Avg QP:22.72 size: 5567
x264 [info]: consecutive B-frames: 2.0% 2.4% 10.1% 13.8% 15.1% 46.0% 7.6% 3.0%
x264 [info]: mb I I16..4: 5.4% 75.5% 19.1%
x264 [info]: mb P I16..4: 0.4% 5.2% 1.1% P16..4: 34.8% 38.6% 11.7% 0.0% 0.0% skip: 8.2%
x264 [info]: mb B I16..4: 0.0% 0.4% 0.1% B16..8: 37.9% 18.0% 2.9% direct: 3.4% skip:37.3% L0:45.6% L1:46.7% BI: 7.6%
x264 [info]: 8x8 transform intra:77.4% inter:60.6%
x264 [info]: direct mvs spatial:98.4% temporal:1.6%
x264 [info]: coded y,uvDC,uvAC intra: 89.4% 79.6% 51.2% inter: 19.9% 13.1% 4.3%
x264 [info]: i16 v,h,dc,p: 31% 17% 7% 45%
x264 [info]: i8 v,h,dc,ddl,ddr,vr,hd,vl,hu: 11% 6% 6% 11% 15% 15% 14% 12% 11%
x264 [info]: i4 v,h,dc,ddl,ddr,vr,hd,vl,hu: 14% 7% 5% 9% 15% 15% 13% 11% 11%
x264 [info]: i8c dc,h,v,p: 34% 25% 23% 18%
x264 [info]: Weighted P-Frames: Y:6.4% UV:3.6%
x264 [info]: ref P L0: 46.2% 10.2% 17.8% 6.3% 5.7% 3.9% 3.9% 1.9% 2.1% 1.8% 0.1% 0.0%
x264 [info]: ref B L0: 70.4% 12.4% 6.5% 3.3% 2.4% 2.1% 1.8% 0.8% 0.3%
x264 [info]: ref B L1: 93.6% 6.4%
x264 [info]: kb/s:1737.19

encoded 161329 frames, 11.79 fps, 1737.19 kb/s
GeneralComplete name : D:\Torrents\Intouchables.2011.BDRip.x264.960x.rip by Frost O.S.mp4Format : MPEG-4Format profile : Base MediaCodec ID : isom (isom/avc1/iso2)File size : 1.77 GiBDuration : 1 h 52 minOverall bit rate mode : VariableOverall bit rate : 2 267 kb/sMovie name : Intouchables 2011 BDRip x264 960x rip by Frost O SDirector : Оливье Накаш / Olivier Nakache / Эрик Толедано / Eric ToledanoActor : Франсуа Клюзе / François Cluzet (Philippe) / Омар Си / Omar Sy (Driss) / Анн Ле Ни / Anne Le Ny (Yvonne) / Одри Флеро / Audrey Fleurot (Magalie) / Клотильд Молле / Clotilde Mollet (Marcelle) / Альба Гайя Крагеде Беллуджи / Alba Gaïa Kraghede Bellugi (Elisa) / Сирил Менди / Cyril Mendy (Adama) / Кристиан Амери / Christian Ameri (Albert) / Грегуар Эстерманн / Grégoire Oestermann (Antoine) / Жозефин де Мо / Joséphine de Meaux (La DRH société de courses) / Доминик Дагьер / Dominique Daguier (Amie de Philippe) / Франсуа Карон / François Caron (Ami de Philippe)Genre : DramaContentType : Short FilmEncoded date : UTC 2017-05-04 16:53:28Tagged date : UTC 2017-05-04 16:56:36Writing application : MkvToMp4 version: 0.224 (x64)Cover : YesComment : rip by Frost O.SLongDescription : Пострадав в результате несчастного случая, богатый аристократ Филипп нанимает в помощники человека, который менее всего подходит для этой работы, - молодого жителя предместья Дрисса, только что освободившегося из тюрьмы. Несмотря на то, что Филипп прикован к инвалидному креслу, Дриссу удается привнести в размеренную жизнь аристократа дух приключений.

VideoID : 1Format : AVCFormat/Info : Advanced Video CodecFormat profile : [email protected] settings, CABAC : YesFormat settings, ReFrames : 10 framesCodec ID : avc1Codec ID/Info : Advanced Video CodingDuration : 1 h 52 minBit rate : 1 740 kb/sMaximum bit rate : 5 527 kb/sWidth : 960 pixelsHeight : 520 pixelsDisplay aspect ratio : 1.85:1Frame rate mode : ConstantFrame rate : 24.000 FPSColor space : YUVChroma subsampling : 4:2:0Bit depth : 8 bitsScan type : ProgressiveBits/(Pixel*Frame) : 0.145Stream size : 1.36 GiB (77%)Writing library : x264 core 148 r2744 b97ae06Encoding settings : cabac=1 / ref=10 / deblock=1:-1:-1 / analyse=0x3:0x113 / me=umh / subme=11 / psy=1 / psy_rd=1.05:0.00 / mixed_ref=1 / me_range=32 / chroma_me=1 / trellis=2 / 8x8dct=1 / cqm=0 / deadzone=21,11 / fast_pskip=0 / chroma_qp_offset=-2 / threads=6 / lookahead_threads=1 / sliced_threads=0 / nr=0 / decimate=0 / interlaced=0 / bluray_compat=0 / constrained_intra=0 / bframes=7 / b_pyramid=2 / b_adapt=2 / b_bias=0 / direct=3 / weightb=1 / open_gop=0 / weightp=2 / keyint=250 / keyint_min=24 / scenecut=40 / intra_refresh=0 / rc=2pass / mbtree=0 / bitrate=1740 / ratetol=1.0 / qcomp=0.70 / qpmin=0 / qpmax=69 / qpstep=4 / cplxblur=20.0 / qblur=0.5 / ip_ratio=1.40 / pb_ratio=1.30 / aq=1:0.80Language : EnglishEncoded date : UTC 2017-05-04 16:53:28Tagged date : UTC 2017-05-04 16:54:29Color range : LimitedColor primaries : BT.709Transfer characteristics : BT.709Matrix coefficients : BT.709

Audio #1ID : 2Format : AACFormat/Info : Advanced Audio CodecFormat profile : LCCodec ID : 40Duration : 1 h 52 minBit rate mode : VariableBit rate : 128 kb/sMaximum bit rate : 135 kb/sChannel(s) : 2 channelsChannel positions : Front: L RSampling rate : 48.0 kHzFrame rate : 46.875 FPS (1024 spf)Compression mode : LossyStream size : 103 MiB (6%)Title : Dub_ R5 / Dub_ R5Language : RussianDefault : YesAlternate group : 1Encoded date : UTC 2017-05-04 16:54:06Tagged date : UTC 2017-05-04 16:54:29

Audio #2ID : 3Format : AACFormat/Info : Advanced Audio CodecFormat profile : LCCodec ID : 40Duration : 1 h 52 minBit rate mode : VariableBit rate : 128 kb/sMaximum bit rate : 133 kb/sChannel(s) : 2 channelsChannel positions : Front: L RSampling rate : 48.0 kHzFrame rate : 46.875 FPS (1024 spf)Compression mode : LossyStream size : 103 MiB (6%)Title : DVO_ Ozz TV / DVO_ Ozz TVLanguage : RussianDefault : NoAlternate group : 1Encoded date : UTC 2017-05-04 16:54:12Tagged date : UTC 2017-05-04 16:54:29

Audio #3ID : 4Format : AACFormat/Info : Advanced Audio CodecFormat profile : LCCodec ID : 40Duration : 1 h 52 minBit rate mode : VariableBit rate : 128 kb/sMaximum bit rate : 133 kb/sChannel(s) : 2 channelsChannel positions : Front: L RSampling rate : 48.0 kHzFrame rate : 46.875 FPS (1024 spf)Compression mode : LossyStream size : 103 MiB (6%)Title : VO_ zamez / VO_ zamezLanguage : RussianDefault : NoAlternate group : 1Encoded date : UTC 2017-05-04 16:54:17Tagged date : UTC 2017-05-04 16:54:29

Audio #4ID : 5Format : AACFormat/Info : Advanced Audio CodecFormat profile : LCCodec ID : 40Duration : 1 h 52 minBit rate mode : VariableBit rate : 128 kb/sMaximum bit rate : 133 kb/sChannel(s) : 2 channelsChannel positions : Front: L RSampling rate : 48.0 kHzFrame rate : 46.875 FPS (1024 spf)Compression mode : LossyStream size : 103 MiB (6%)Title : Original / OriginalLanguage : FrenchDefault : NoAlternate group : 1Encoded date : UTC 2017-05-04 16:54:23Tagged date : UTC 2017-05-04 16:54:29

Text #1ID : 6Format : Timed TextMuxing mode : sbtlCodec ID : tx3gDuration : 1 h 48 minBit rate mode : VariableBit rate : 110 b/sStream size : 86.9 KiB (0%)Title : FALIMONOVA / FALIMONOVALanguage : RussianDefault : YesForced : NoAlternate group : 2Encoded date : UTC 2017-05-04 16:54:29Tagged date : UTC 2017-05-04 16:54:29

Text #2ID : 7Format : Timed TextMuxing mode : sbtlCodec ID : tx3gDuration : 1 h 48 minBit rate mode : VariableBit rate : 98 b/sStream size : 77.6 KiB (0%)Title : El.Brujo / El.BrujoLanguage : RussianDefault : NoForced : NoAlternate group : 2Encoded date : UTC 2017-05-04 16:54:29Tagged date : UTC 2017-05-04 16:54:29

Text #3ID : 8Format : Timed TextMuxing mode : sbtlCodec ID : tx3gDuration : 1 h 51 minBit rate mode : VariableBit rate : 54 b/sStream size : 44.5 KiB (0%)Title : Full / FullLanguage : FrenchDefault : NoForced : NoAlternate group : 2Encoded date : UTC 2017-05-04 16:54:29Tagged date : UTC 2017-05-04 16:54:29

Text #4ID : 9Format : Timed TextMuxing mode : sbtlCodec ID : tx3gDuration : 1 h 48 minBit rate mode : VariableBit rate : 63 b/sStream size : 50.3 KiB (0%)Title : Full / FullLanguage : EnglishDefault : NoForced : NoAlternate group : 2Encoded date : UTC 2017-05-04 16:54:29Tagged date : UTC 2017-05-04 16:54:29


Трекер:  [ 04-Май-2017 19:00 ]

  

Скачать .torrent

Размер .torrent файла 18 KB


Размер: 1.77 GB
Хэш (hash) релиза: c22759939514de68051d2d353afe9f5fa399ee12

Еще никто не оставлял запись к записи скачать торрент [VIDEO] Неприкасаемые 1+1 . Будь первым!

!Обратная связь