• Samurai Girls (Anime) 6.5 | We The Jury | Stahlnetz

Скачать через торрент [MULT] Хоббит The Hobbit бесплатно русская версия torrent активатор

Статистика раздачи
Размер:  1.37 GB   |    Зарегистрирован:  1 год 2 месяца   |    .torrent скачан:  18 раз   |   
Раздают:  1  
   
загрузка...
 
Автор Сообщение

Galfimbul

avatar Galfimbul


Хоббит / The Hobbit<hr class="post-hr">
<hr class="post-hr">Год выпуска: 1977
Страна: США, Япония
Жанр: мультфильм, мюзикл, фэнтези, приключения, семейный
Продолжительность: 01:17:25
Перевод №1: Русский Профессиональный (многоголосый, закадровый)
Перевод №2: Русский Авторский (одноголосый, закадровый) Юрий Сербин
Перевод №3: Русский Авторский (одноголосый, закадровый) Сергей Визгунов
Перевод №4: Русский Авторский (одноголосый, закадровый) Алексей Михалёв
Перевод №5: Русский Авторский (одноголосый, закадровый) Александр Кашкин
Оригинальная дорожка: Есть
Cубтитры: русские (Full), украинские (Full), английские (Full)<hr class="post-hr">Режиссеры: Джулз Басс / Jules Bass, Артур Ранкин мл. / Arthur Rankin Jr<hr class="post-hr">Роли озвучивали: Орсон Бин, Ричард Бун, Ганс Конрид, Джон Хьюстон, Отто Преминджер, Сирил Ричард, Брава Теодор, Пол Фрис, Джек ДеЛеон, Дон Мессик и другие .<hr class="post-hr">Описание: Экранизация сказки Дж. Р. Р. Толкина о необычайном путешествии хоббита Бильбо Бэггинса, волшебника Гэндальфа и компании гномов к Одинокой горе, где дракон Смог сторожит сокровища, исконно принадлежащие гномам.<hr class="post-hr"> Релиз группы <hr class="post-hr">Качество: WEB-DLRip / рип с WEB-DL 720p
Формат: MP4
Видео кодек: H.264
Аудио кодек: AAC
Видео: 736х536 AR:1.37 1740 kbps 23.976 fps
Аудио №1: [Russian] 1ch 48 kHz 128 kbps - Профессиональный (многоголосый, закадровый)
Аудио №2: [Russian] 1ch 48 kHz 128 kbps - Авторский (одноголосый, закадровый) Юрий Сербин
Аудио №3: [Russian] 1ch 48 kHz 128 kbps - Авторский (одноголосый, закадровый) Сергей Визгунов
Аудио №4: [Russian] 1ch 48 kHz 128 kbps - Авторский (одноголосый, закадровый) Алексей Михалёв
Аудио №5: [Russian] 1ch 48 kHz 128 kbps - Авторский (одноголосый, закадровый) Александр Кашкин
Аудио №6: [English] 1ch 48 kHz 128 kbps - Оригинал DVD R1<hr class="post-hr">
avs [info]: 736x536p 1:1 @ 2997/125 fps (cfr)
x264 [info]: using SAR=1/1
x264 [info]: using cpu capabilities: MMX2 SSE2Fast SSSE3 SSE4.2 AVX FMA3 AVX2 LZCNT BMI2
x264 [info]: profile High, level 4.1

x264 [info]: frame I:777 Avg QP:17.74 size: 59582
x264 [info]: frame P:28637 Avg QP:20.94 size: 18677
x264 [info]: frame B:81977 Avg QP:22.74 size: 5238
x264 [info]: consecutive B-frames: 2.6% 5.7% 6.5% 52.0% 13.5% 13.5% 2.6% 2.7% 0.9%
x264 [info]: mb I I16..4: 1.6% 70.8% 27.6%
x264 [info]: mb P I16..4: 0.7% 8.1% 3.0% P16..4: 35.0% 37.6% 12.6% 0.0% 0.0% skip: 2.9%
x264 [info]: mb B I16..4: 0.1% 0.8% 0.3% B16..8: 31.1% 16.8% 2.9% direct: 6.3% skip:41.6% L0:42.0% L1:44.2% BI:13.8%
x264 [info]: 8x8 transform intra:69.1% inter:57.3%
x264 [info]: direct mvs spatial:97.5% temporal:2.5%
x264 [info]: coded y,uvDC,uvAC intra: 85.3% 70.9% 37.6% inter: 27.0% 16.7% 3.7%
x264 [info]: i16 v,h,dc,p: 23% 19% 15% 43%
x264 [info]: i8 v,h,dc,ddl,ddr,vr,hd,vl,hu: 10% 7% 10% 11% 13% 12% 13% 11% 14%
x264 [info]: i4 v,h,dc,ddl,ddr,vr,hd,vl,hu: 15% 7% 6% 9% 14% 14% 12% 10% 12%
x264 [info]: i8c dc,h,v,p: 35% 32% 19% 14%
x264 [info]: Weighted P-Frames: Y:24.4% UV:9.4%
x264 [info]: ref P L0: 50.1% 11.8% 15.7% 6.0% 4.6% 3.7% 3.3% 2.1% 2.1% 0.6% 0.0%
x264 [info]: ref B L0: 78.6% 10.0% 4.2% 2.4% 1.6% 1.5% 1.0% 0.7%
x264 [info]: ref B L1: 95.9% 4.1%
x264 [info]: kb/s:1740.08

encoded 111391 frames, 16.87 fps, 1740.08 kb/s
GeneralComplete name : D:\Torrents\The Hobbit.1977.WEB-DLRip.x264.960x.rip by Frost O.S.mp4Format : MPEG-4Format profile : Base MediaCodec ID : isom (isom/avc1/iso2)File size : 1.37 GiBDuration : 1 h 17 minOverall bit rate mode : VariableOverall bit rate : 2 534 kb/sMovie name : The Hobbit 1977 WEB-DLRip x264 960x rip by Frost O SDirector : Джулз Басс / Jules Bass / Артур Ранкин мл. / Arthur Rankin JrActor : Орсон Бин / Ричард Бун / Ганс Конрид / Джон Хьюстон / Отто Преминджер / Сирил Ричард / Брава Теодор / Пол Фрис / Джек ДеЛеон / Дон МессикGenre : AnimationContentType : Short FilmEncoded date : UTC 2017-05-03 15:56:26Tagged date : UTC 2017-05-03 15:59:44Writing application : MkvToMp4 version: 0.224 (x64)Cover : YesComment : rip by Frost O.SLongDescription : Экранизация сказки Дж. Р. Р. Толкина о необычайном путешествии хоббита Бильбо Бэггинса, волшебника Гэндальфа и компании гномов к Одинокой горе, где дракон Смог сторожит сокровища, исконно принадлежащие гномам

VideoID : 1Format : AVCFormat/Info : Advanced Video CodecFormat profile : [email protected] settings, CABAC : YesFormat settings, ReFrames : 9 framesCodec ID : avc1Codec ID/Info : Advanced Video CodingDuration : 1 h 17 minBit rate : 1 740 kb/sMaximum bit rate : 5 527 kb/sWidth : 736 pixelsHeight : 536 pixelsDisplay aspect ratio : 1.373Frame rate mode : ConstantFrame rate : 23.976 (24000/1001) FPSOriginal frame rate : 23.976 (23976/1000) FPSColor space : YUVChroma subsampling : 4:2:0Bit depth : 8 bitsScan type : ProgressiveBits/(Pixel*Frame) : 0.184Stream size : 964 MiB (69%)Writing library : x264 core 148 r2744 b97ae06Encoding settings : cabac=1 / ref=9 / deblock=1:-1:-1 / analyse=0x3:0x113 / me=umh / subme=11 / psy=1 / psy_rd=0.80:0.00 / mixed_ref=1 / me_range=32 / chroma_me=1 / trellis=2 / 8x8dct=1 / cqm=0 / deadzone=21,11 / fast_pskip=0 / chroma_qp_offset=-2 / threads=6 / lookahead_threads=1 / sliced_threads=0 / nr=0 / decimate=0 / interlaced=0 / bluray_compat=0 / constrained_intra=0 / bframes=8 / b_pyramid=2 / b_adapt=2 / b_bias=0 / direct=3 / weightb=1 / open_gop=0 / weightp=2 / keyint=250 / keyint_min=23 / scenecut=40 / intra_refresh=0 / rc=2pass / mbtree=0 / bitrate=1740 / ratetol=1.0 / qcomp=0.70 / qpmin=0 / qpmax=69 / qpstep=4 / cplxblur=20.0 / qblur=0.5 / ip_ratio=1.40 / pb_ratio=1.30 / aq=2:0.90Language : EnglishEncoded date : UTC 2017-05-03 15:56:26Tagged date : UTC 2017-05-03 15:57:27Color range : LimitedColor primaries : BT.709Transfer characteristics : BT.709Matrix coefficients : BT.709

Audio #1ID : 2Format : AACFormat/Info : Advanced Audio CodecFormat profile : LCCodec ID : 40Duration : 1 h 17 minBit rate mode : ConstantBit rate : 128 kb/sChannel(s) : 1 channelChannel positions : Front: CSampling rate : 48.0 kHzFrame rate : 46.875 FPS (1024 spf)Compression mode : LossyStream size : 70.9 MiB (5%)Title : MVO / MVOLanguage : RussianDefault : YesAlternate group : 1Encoded date : UTC 2017-05-03 15:56:43Tagged date : UTC 2017-05-03 15:57:27

Audio #2ID : 3Format : AACFormat/Info : Advanced Audio CodecFormat profile : LCCodec ID : 40Duration : 1 h 17 minBit rate mode : VariableBit rate : 129 kb/sChannel(s) : 1 channelChannel positions : Front: CSampling rate : 48.0 kHzFrame rate : 46.875 FPS (1024 spf)Compression mode : LossyStream size : 70.9 MiB (5%)Title : VO Serbin / VO SerbinLanguage : RussianDefault : NoAlternate group : 1Encoded date : UTC 2017-05-03 15:56:52Tagged date : UTC 2017-05-03 15:57:27

Audio #3ID : 4Format : AACFormat/Info : Advanced Audio CodecFormat profile : LCCodec ID : 40Duration : 1 h 17 minBit rate mode : ConstantBit rate : 128 kb/sChannel(s) : 1 channelChannel positions : Front: CSampling rate : 48.0 kHzFrame rate : 46.875 FPS (1024 spf)Compression mode : LossyStream size : 70.9 MiB (5%)Title : VO Vizgunov / VO VizgunovLanguage : RussianDefault : NoAlternate group : 1Encoded date : UTC 2017-05-03 15:57:00Tagged date : UTC 2017-05-03 15:57:27

Audio #4ID : 5Format : AACFormat/Info : Advanced Audio CodecFormat profile : LCCodec ID : 40Duration : 1 h 17 minBit rate mode : ConstantBit rate : 128 kb/sChannel(s) : 1 channelChannel positions : Front: CSampling rate : 48.0 kHzFrame rate : 46.875 FPS (1024 spf)Compression mode : LossyStream size : 70.9 MiB (5%)Title : VO Mikhalev / VO MikhalevLanguage : RussianDefault : NoAlternate group : 1Encoded date : UTC 2017-05-03 15:57:06Tagged date : UTC 2017-05-03 15:57:27

Audio #5ID : 6Format : AACFormat/Info : Advanced Audio CodecFormat profile : LCCodec ID : 40Duration : 1 h 17 minBit rate mode : ConstantBit rate : 128 kb/sChannel(s) : 1 channelChannel positions : Front: CSampling rate : 48.0 kHzFrame rate : 46.875 FPS (1024 spf)Compression mode : LossyStream size : 70.9 MiB (5%)Title : VO Kashkin / VO KashkinLanguage : RussianDefault : NoAlternate group : 1Encoded date : UTC 2017-05-03 15:57:13Tagged date : UTC 2017-05-03 15:57:27

Audio #6ID : 7Format : AACFormat/Info : Advanced Audio CodecFormat profile : LCCodec ID : 40Duration : 1 h 17 minBit rate mode : ConstantBit rate : 128 kb/sChannel(s) : 1 channelChannel positions : Front: CSampling rate : 48.0 kHzFrame rate : 46.875 FPS (1024 spf)Compression mode : LossyStream size : 70.9 MiB (5%)Title : Original _DVD R1_ / Original _DVD R1_Language : EnglishDefault : NoAlternate group : 1Encoded date : UTC 2017-05-03 15:57:19Tagged date : UTC 2017-05-03 15:57:27

Text #1ID : 8Format : Timed TextMuxing mode : sbtlCodec ID : tx3gDuration : 1 h 16 minBit rate mode : VariableBit rate : 100 b/sStream size : 56.0 KiB (0%)Title : Full / FullLanguage : RussianDefault : YesForced : NoAlternate group : 2Encoded date : UTC 2017-05-03 15:57:27Tagged date : UTC 2017-05-03 15:57:27

Text #2ID : 9Format : Timed TextMuxing mode : sbtlCodec ID : tx3gDuration : 1 h 16 minBit rate mode : VariableBit rate : 91 b/sStream size : 50.9 KiB (0%)Title : Full / FullLanguage : UkrainianDefault : NoForced : NoAlternate group : 2Encoded date : UTC 2017-05-03 15:57:27Tagged date : UTC 2017-05-03 15:57:27

Text #3ID : 10Format : Timed TextMuxing mode : sbtlCodec ID : tx3gDuration : 1 h 16 minBit rate mode : VariableBit rate : 58 b/sStream size : 32.6 KiB (0%)Title : Full / FullLanguage : EnglishDefault : NoForced : NoAlternate group : 2Encoded date : UTC 2017-05-03 15:57:27Tagged date : UTC 2017-05-03 15:57:27


Трекер:  [ 03-Май-2017 18:00 ]

  

Скачать .torrent

Размер .torrent файла 14 KB


Размер: 1.37 GB
Хэш (hash) релиза: e60f457cc3da269d1e1db281bf529674da55c93c

Торренты, похожие на [MULT] Хоббит The Hobbit скачать торрент

Форум Название Автор Размер S L Добавлен
Видео (Фильмы/Клипы) ·· [MULT] Хоббит / The Hobbit (Джулз Басс / Jules Bass, Артур Ранкин мл. / Arthur Rankin Jr.) [1977, мультфильм, мюзикл, фэнтези, приключения, семейный, WEB-DLRip] [MP4, 480x] Galfimbul 358985770342 MB 0 0 1493828253

19:17

3-Май-17

Еще никто не оставлял запись к записи скачать торрент [MULT] Хоббит The Hobbit . Будь первым!

!Обратная связь