Le Retour du Héros | Kumkum Bhagya | Accounting And Audit

Скачать через торрент [MULT] Хоббит The Hobbit бесплатно русская версия torrent активатор

Статистика раздачи
Размер:  342 MB   |    Зарегистрирован:  1 год 2 месяца   |    .torrent скачан:  16 раз   |   
Раздают:  1  
   
загрузка...
 
Автор Сообщение

Galfimbul

avatar Galfimbul


Хоббит / The Hobbit<hr class="post-hr">
<hr class="post-hr">Год выпуска: 1977
Страна: США, Япония
Жанр: мультфильм, мюзикл, фэнтези, приключения, семейный
Продолжительность: 01:17:25
Перевод: Русский Профессиональный (многоголосый, закадровый)
Cубтитры: нет<hr class="post-hr">Режиссеры: Джулз Басс / Jules Bass, Артур Ранкин мл. / Arthur Rankin Jr<hr class="post-hr">Роли озвучивали: Орсон Бин, Ричард Бун, Ганс Конрид, Джон Хьюстон, Отто Преминджер, Сирил Ричард, Брава Теодор, Пол Фрис, Джек ДеЛеон, Дон Мессик и другие .<hr class="post-hr">Описание: Экранизация сказки Дж. Р. Р. Толкина о необычайном путешествии хоббита Бильбо Бэггинса, волшебника Гэндальфа и компании гномов к Одинокой горе, где дракон Смог сторожит сокровища, исконно принадлежащие гномам.<hr class="post-hr"> Релиз группы <hr class="post-hr">Качество: WEB-DLRip / рип с WEB-DL 720p
Формат: MP4
Видео кодек: XviD
Аудио кодек: AAC
Видео: 440х320 AR:1.38 482 kbps 23.976 fps
Аудио: [Russian] 1ch 48 kHz 128 kbps - Профессиональный (многоголосый, закадровый)<hr class="post-hr">
GeneralComplete name : D:\Torrents\The Hobbit.1977.WEB-DLRip.XviD.480x.rip by Frost O.S.mp4Format : MPEG-4Format profile : Base MediaCodec ID : isom (isom/iso2)File size : 342 MiBDuration : 1 h 17 minOverall bit rate mode : VariableOverall bit rate : 618 kb/sMovie name : The Hobbit 1977 WEB-DLRip XviD 480x rip by Frost O SDirector : Джулз Басс / Jules Bass / Артур Ранкин мл. / Arthur Rankin JrActor : Орсон Бин / Ричард Бун / Ганс Конрид / Джон Хьюстон / Отто Преминджер / Сирил Ричард / Брава Теодор / Пол Фрис / Джек ДеЛеон / Дон МессикGenre : AnimationContentType : Short FilmEncoded date : UTC 2017-05-03 16:06:41Tagged date : UTC 2017-05-03 16:07:06Writing application : MkvToMp4 version: 0.224 (x64)Cover : YesComment : rip by Frost O.SLongDescription : Экранизация сказки Дж. Р. Р. Толкина о необычайном путешествии хоббита Бильбо Бэггинса, волшебника Гэндальфа и компании гномов к Одинокой горе, где дракон Смог сторожит сокровища, исконно принадлежащие гномам.

VideoID : 1Format : MPEG-4 VisualFormat profile : Advanced [email protected] settings, BVOP : YesFormat settings, QPel : YesFormat settings, GMC : No warppointsFormat settings, Matrix : CustomCodec ID : 20Duration : 1 h 17 minBit rate mode : VariableBit rate : 482 kb/sMaximum bit rate : 3 781 kb/sWidth : 440 pixelsHeight : 320 pixelsDisplay aspect ratio : 1.375Frame rate mode : ConstantFrame rate : 23.976 (24000/1001) FPSOriginal frame rate : 23.976 (23976/1000) FPSColor space : YUVChroma subsampling : 4:2:0Bit depth : 8 bitsScan type : ProgressiveCompression mode : LossyBits/(Pixel*Frame) : 0.143Stream size : 267 MiB (78%)Title : avi_GPAC0.5.2_DEV_rev248_g39d5978_masterWriting library : XviD 1.2.1 (UTC 2008-12-04)Language : EnglishTagged date : UTC 2017-05-03 16:06:48

AudioID : 2Format : AACFormat/Info : Advanced Audio CodecFormat profile : LCCodec ID : 40Duration : 1 h 17 minBit rate mode : ConstantBit rate : 128 kb/sChannel(s) : 1 channelChannel positions : Front: CSampling rate : 48.0 kHzFrame rate : 46.875 FPS (1024 spf)Compression mode : LossyStream size : 70.9 MiB (21%)Title : MVO / MVOLanguage : RussianDefault : YesAlternate group : 1Encoded date : UTC 2017-05-03 16:06:46Tagged date : UTC 2017-05-03 16:06:48


Трекер:  [ 03-Май-2017 18:00 ]

  

Скачать .torrent

Размер .torrent файла 14 KB


Размер: 342 MB
Хэш (hash) релиза: e146c8e27e9f11d9abf0f4b0c8003bc3aed3336b

Торренты, похожие на [MULT] Хоббит The Hobbit скачать торрент

Форум Название Автор Размер S L Добавлен
Видео (Фильмы/Клипы) ·· [MULT] Хоббит / The Hobbit (Джулз Басс / Jules Bass, Артур Ранкин мл. / Arthur Rankin Jr.) [1977, мультфильм, мюзикл, фэнтези, приключения, семейный, WEB-DLRip] [MP4, 960x] Galfimbul 14718357671.37 GB 0 0 1493828259

19:17

3-Май-17

Еще никто не оставлял запись к записи скачать торрент [MULT] Хоббит The Hobbit . Будь первым!

!Обратная связь