Книги и аудиокниги | Pack Séries VF HD 1080p | Управление подпиской

Скачать через торрент [VIDEO] Крёстные отцы The Mobfathers бесплатно русская версия torrent активатор

Статистика раздачи
Размер:  1.21 GB   |    Зарегистрирован:  1 год 3 месяца   |    .torrent скачан:  20 раз   |   
Раздают:  1  
   
загрузка...
 
Автор Сообщение

Galfimbul

avatar Galfimbul


Крёстные отцы / The Mobfathers / Suen lo chor<hr class="post-hr">
<hr class="post-hr">Год выпуска: 2016
Страна: Гонконг / Студия: HK Film Production
Жанр: комедия, криминал
Продолжительность: 01:32:50
Перевод: Авторский (одноголосый, закадровый) А. Дольский
Cубтитры: нет<hr class="post-hr">Режиссер: Герман Яу / Herman Yau<hr class="post-hr">В ролях: Энтони Вон, Чэпман То, Филип Кюн, Грегори Вон, Сели Сянь, Сингх Хартихан Битто, Дип Нг и другие .<hr class="post-hr">Описание: Один из главарей азиатской мафии живет привычной жизнью гангстера до тех пор, пока не получает пугающее известие о болезни, которую диагностировали у него медики. Стремительное течение этого неизлечимого заболевания сокращает пребывание главного героя в этом мире. По прогнозам лечащего врача ему осталось совсем немного и основной задачей мафиози теперь является подготовка достойной смены для себя. Однако ситуация усугубляется тем фактом, что в банде наблюдается определенный разлад. Есть два явных кандидата на лидерство, которые ранее исполняли обязанности верных помощников главного героя, но чем же в итоге завершится эта криминальная история? Окажется ли выбор умирающего мужчины достойным или же его угасающий разум не успеет принять верное решение?.<hr class="post-hr">Кинопоиск <hr class="post-hr">Качество: HDRip / рип с BDRip 720p
Формат: MP4
Видео кодек: H.264
Аудио кодек: AAC
Видео: 960x408 AR:2.35 1740 kbps 24.000 fps
Аудио: [Russian] 2ch 48 kHz 128 kbps - [VO] Авторский (одноголосый, закадровый) А. Дольский<hr class="post-hr">
avs [info]: 960x408p 1:1 @ 24/1 fps (cfr)
x264 [info]: using SAR=1/1
x264 [info]: using cpu capabilities: MMX2 SSE2Fast SSSE3 SSE4.2 AVX FMA3 AVX2 LZCNT BMI2
x264 [info]: profile High, level 4.1

x264 [info]: frame I:972 Avg QP:20.19 size: 54788
x264 [info]: frame P:26763 Avg QP:23.52 size: 19088
x264 [info]: frame B:105957 Avg QP:25.53 size: 6079
x264 [info]: consecutive B-frames: 1.5% 1.8% 6.0% 18.7% 13.7% 41.5% 6.3% 1.5% 3.7% 1.8% 1.7% 1.8%
x264 [info]: mb I I16..4: 6.3% 70.1% 23.5%
x264 [info]: mb P I16..4: 0.7% 8.5% 1.4% P16..4: 33.8% 37.6% 11.5% 0.0% 0.0% skip: 6.4%
x264 [info]: mb B I16..4: 0.0% 0.7% 0.1% B16..8: 38.0% 17.0% 3.5% direct: 4.8% skip:35.8% L0:43.1% L1:48.4% BI: 8.5%
x264 [info]: 8x8 transform intra:78.4% inter:57.6%
x264 [info]: direct mvs spatial:97.2% temporal:2.8%
x264 [info]: coded y,uvDC,uvAC intra: 86.7% 67.6% 34.4% inter: 23.4% 13.0% 2.8%
x264 [info]: i16 v,h,dc,p: 24% 26% 8% 41%
x264 [info]: i8 v,h,dc,ddl,ddr,vr,hd,vl,hu: 9% 6% 8% 11% 15% 14% 14% 11% 12%
x264 [info]: i4 v,h,dc,ddl,ddr,vr,hd,vl,hu: 11% 7% 5% 10% 15% 14% 14% 12% 14%
x264 [info]: i8c dc,h,v,p: 35% 28% 19% 18%
x264 [info]: Weighted P-Frames: Y:9.9% UV:5.6%
x264 [info]: ref P L0: 46.7% 11.0% 18.4% 6.8% 5.4% 3.9% 3.5% 1.9% 2.1% 0.3% 0.0%
x264 [info]: ref B L0: 77.3% 10.4% 5.2% 2.6% 1.9% 1.5% 0.9% 0.3%
x264 [info]: ref B L1: 94.6% 5.4%
x264 [info]: kb/s:1735.19

encoded 133692 frames, 14.68 fps, 1735.20 kb/s
GeneralComplete name : D:\Torrents\The Mobfathers.2016.HDRip.x264.960x.rip by Frost O.S.mp4Format : MPEG-4Format profile : Base MediaCodec ID : isom (isom/avc1/iso2)File size : 1.21 GiBDuration : 1 h 32 minOverall bit rate mode : VariableOverall bit rate : 1 871 kb/sMovie name : The Mobfathers 2016 HDRip x264 960x rip by Frost O SDirector : Герман Яу / Herman YauActor : Энтони Вон / Чэпман То / Филип Кюн / Грегори Вон / Сели Сянь / Сингх Хартихан Битто / Дип Нг и дрContentType : Short FilmEncoded date : UTC 2017-05-03 15:21:43Tagged date : UTC 2017-05-03 15:23:42Writing application : MkvToMp4 version: 0.224 (x64)Cover : YesComment : rip by Frost O.SLongDescription : Один из главарей азиатской мафии живет привычной жизнью гангстера до тех пор, пока не получает пугающее известие о болезни, которую диагностировали у него медики. Стремительное течение этого неизлечимого заболевания сокращает пребывание главного героя в этом мире. По прогнозам лечащего врача ему осталось совсем немного и основной задачей мафиози теперь является подготовка достойной смены для себя. Однако ситуация усугубляется тем фактом, что в банде наблюдается определенный разлад. Есть два явных кандидата на лидерство, которые ранее исполняли обязанности верных помощников главного героя, но чем же в итоге завершится эта криминальная история? Окажется ли выбор умирающего мужчины достойным или же его угасающий разум не успеет принять верное решение?.

VideoID : 1Format : AVCFormat/Info : Advanced Video CodecFormat profile : [email protected] settings, CABAC : YesFormat settings, ReFrames : 9 framesCodec ID : avc1Codec ID/Info : Advanced Video CodingDuration : 1 h 32 minBit rate : 1 740 kb/sMaximum bit rate : 5 618 kb/sWidth : 960 pixelsHeight : 408 pixelsDisplay aspect ratio : 2.35:1Frame rate mode : ConstantFrame rate : 24.000 FPSColor space : YUVChroma subsampling : 4:2:0Bit depth : 8 bitsScan type : ProgressiveBits/(Pixel*Frame) : 0.185Stream size : 1.13 GiB (93%)Writing library : x264 core 148 r2744 b97ae06Encoding settings : cabac=1 / ref=9 / deblock=1:-1:-1 / analyse=0x3:0x113 / me=umh / subme=11 / psy=1 / psy_rd=1.05:0.00 / mixed_ref=1 / me_range=32 / chroma_me=1 / trellis=2 / 8x8dct=1 / cqm=0 / deadzone=21,11 / fast_pskip=0 / chroma_qp_offset=-2 / threads=6 / lookahead_threads=1 / sliced_threads=0 / nr=0 / decimate=0 / interlaced=0 / bluray_compat=0 / constrained_intra=0 / bframes=11 / b_pyramid=2 / b_adapt=2 / b_bias=0 / direct=3 / weightb=1 / open_gop=0 / weightp=2 / keyint=250 / keyint_min=24 / scenecut=40 / intra_refresh=0 / rc=2pass / mbtree=0 / bitrate=1740 / ratetol=1.0 / qcomp=0.65 / qpmin=0 / qpmax=69 / qpstep=4 / cplxblur=20.0 / qblur=0.5 / ip_ratio=1.40 / pb_ratio=1.30 / aq=2:0.80Language : EnglishEncoded date : UTC 2017-05-03 15:21:43Tagged date : UTC 2017-05-03 15:22:23Color range : LimitedColor primaries : BT.709Transfer characteristics : BT.709Matrix coefficients : BT.709

AudioID : 2Format : AACFormat/Info : Advanced Audio CodecFormat profile : LCCodec ID : 40Duration : 1 h 32 minBit rate mode : VariableBit rate : 128 kb/sMaximum bit rate : 134 kb/sChannel(s) : 2 channelsChannel positions : Front: L RSampling rate : 48.0 kHzFrame rate : 46.875 FPS (1024 spf)Compression mode : LossyStream size : 85.0 MiB (7%)Title : VO Dolskiy / VO DolskiyLanguage : RussianDefault : YesAlternate group : 1Encoded date : UTC 2017-05-03 15:22:13Tagged date : UTC 2017-05-03 15:22:23


Трекер:  [ 03-Май-2017 17:30 ]

  

Скачать .torrent

Размер .torrent файла 12 KB


Размер: 1.21 GB
Хэш (hash) релиза: 2ee57a40528244f05753c0bd43997a2ca3d1cfa3

Торренты, похожие на [VIDEO] Крёстные отцы The Mobfathers скачать торрент

Форум Название Автор Размер S L Добавлен
Видео (Фильмы/Клипы) ·· [VIDEO] Крёстные отцы / The Mobfathers / Suen lo chor (Герман Яу / Herman Yau) [2016, комедия, криминал, HDRip] [MP4, 480x] VO Дольский Galfimbul 436866047417 MB 0 0 1493825882

18:38

3-Май-17

Видео (Фильмы/Клипы) ·· [VIDEO] Крёстные отцы / The Mobfathers / Suen lo chor (Герман Яу / Herman Yau) [2016, комедия, криминал, HDRip] [3GP, 320x] VO Дольский Galfimbul 334591136319 MB 0 0 1493825742

18:35

3-Май-17

Еще никто не оставлял запись к записи скачать торрент [VIDEO] Крёстные отцы The Mobfathers . Будь первым!

!Обратная связь