D.N.Angel | Sono stato fortunato - autobiografia | Eps7 SpongeBob SquarePants - Season 11 (2017)

Скачать через торрент [VIDEO] Крёстные отцы The Mobfathers бесплатно русская версия torrent активатор

Статистика раздачи
Размер:  417 MB   |    Зарегистрирован:  1 год 2 месяца   |    .torrent скачан:  19 раз   |   
Раздают:  1  
   
загрузка...
 
Автор Сообщение

Galfimbul

avatar Galfimbul


Крёстные отцы / The Mobfathers / Suen lo chor<hr class="post-hr">
<hr class="post-hr">Год выпуска: 2016
Страна: Гонконг / Студия: HK Film Production
Жанр: комедия, криминал
Продолжительность: 01:32:50
Перевод: Авторский (одноголосый, закадровый) А. Дольский
Cубтитры: нет<hr class="post-hr">Режиссер: Герман Яу / Herman Yau<hr class="post-hr">В ролях: Энтони Вон, Чэпман То, Филип Кюн, Грегори Вон, Сели Сянь, Сингх Хартихан Битто, Дип Нг и другие .<hr class="post-hr">Описание: Один из главарей азиатской мафии живет привычной жизнью гангстера до тех пор, пока не получает пугающее известие о болезни, которую диагностировали у него медики. Стремительное течение этого неизлечимого заболевания сокращает пребывание главного героя в этом мире. По прогнозам лечащего врача ему осталось совсем немного и основной задачей мафиози теперь является подготовка достойной смены для себя. Однако ситуация усугубляется тем фактом, что в банде наблюдается определенный разлад. Есть два явных кандидата на лидерство, которые ранее исполняли обязанности верных помощников главного героя, но чем же в итоге завершится эта криминальная история? Окажется ли выбор умирающего мужчины достойным или же его угасающий разум не успеет принять верное решение?.<hr class="post-hr">Кинопоиск <hr class="post-hr">Качество: HDRip / рип с BDRip 720p
Формат: MP4
Видео кодек: XviD
Аудио кодек: AAC
Видео: 480x200 AR:2.40 492 kbps 24.000 fps
Аудио: [Russian] 2ch 48 kHz 128 kbps - [VO] Авторский (одноголосый, закадровый) А. Дольский<hr class="post-hr">
GeneralComplete name : D:\Torrents\The Mobfathers.2016.HDRip.XviD.480x.rip by Frost O.S.mp4Format : MPEG-4Format profile : Base MediaCodec ID : isom (isom/iso2)File size : 417 MiBDuration : 1 h 32 minOverall bit rate mode : VariableOverall bit rate : 627 kb/sMovie name : The Mobfathers 2016 HDRip XviD 480x rip by Frost O SDirector : Герман Яу / Herman YauActor : Энтони Вон / Чэпман То / Филип Кюн / Грегори Вон / Сели Сянь / Сингх Хартихан Битто / Дип НгContentType : Short FilmEncoded date : UTC 2017-05-03 15:29:58Tagged date : UTC 2017-05-03 15:30:41Writing application : MkvToMp4 version: 0.224 (x64)Cover : YesComment : rip by Frost O.SLongDescription : Один из главарей азиатской мафии живет привычной жизнью гангстера до тех пор, пока не получает пугающее известие о болезни, которую диагностировали у него медики. Стремительное течение этого неизлечимого заболевания сокращает пребывание главного героя в этом мире. По прогнозам лечащего врача ему осталось совсем немного и основной задачей мафиози теперь является подготовка достойной смены для себя. Однако ситуация усугубляется тем фактом, что в банде наблюдается определенный разлад. Есть два явных кандидата на лидерство, которые ранее исполняли обязанности верных помощников главного героя, но чем же в итоге завершится эта криминальная история? Окажется ли выбор умирающего мужчины достойным или же его угасающий разум не успеет принять верное решение?.

VideoID : 1Format : MPEG-4 VisualFormat profile : Advanced [email protected] settings, BVOP : YesFormat settings, QPel : YesFormat settings, GMC : No warppointsFormat settings, Matrix : CustomCodec ID : 20Duration : 1 h 32 minBit rate mode : VariableBit rate : 492 kb/sMaximum bit rate : 2 514 kb/sWidth : 480 pixelsHeight : 200 pixelsDisplay aspect ratio : 2.40:1Frame rate mode : ConstantFrame rate : 24.000 FPSColor space : YUVChroma subsampling : 4:2:0Bit depth : 8 bitsScan type : ProgressiveCompression mode : LossyBits/(Pixel*Frame) : 0.213Stream size : 327 MiB (78%)Title : avi_GPAC0.5.2_DEV_rev248_g39d5978_masterWriting library : XviD 1.2.1 (UTC 2008-12-04)Language : EnglishTagged date : UTC 2017-05-03 15:30:19

AudioID : 2Format : AACFormat/Info : Advanced Audio CodecFormat profile : LCCodec ID : 40Duration : 1 h 32 minBit rate mode : VariableBit rate : 128 kb/sMaximum bit rate : 134 kb/sChannel(s) : 2 channelsChannel positions : Front: L RSampling rate : 48.0 kHzFrame rate : 46.875 FPS (1024 spf)Compression mode : LossyStream size : 85.0 MiB (20%)Title : VO Dolskiy / VO DolskiyLanguage : RussianDefault : YesAlternate group : 1Encoded date : UTC 2017-05-03 15:30:17Tagged date : UTC 2017-05-03 15:30:19


Трекер:  [ 03-Май-2017 17:30 ]

  

Скачать .torrent

Размер .torrent файла 16 KB


Размер: 417 MB
Хэш (hash) релиза: 2a813bc45edd558b28811b12fdfca747801be3c0

Торренты, похожие на [VIDEO] Крёстные отцы The Mobfathers скачать торрент

Форум Название Автор Размер S L Добавлен
Видео (Фильмы/Клипы) ·· [VIDEO] Крёстные отцы / The Mobfathers / Suen lo chor (Герман Яу / Herman Yau) [2016, комедия, криминал, HDRip] [MP4, 960x] VO Дольский Galfimbul 13026098341.21 GB 0 0 1493825887

18:38

3-Май-17

Видео (Фильмы/Клипы) ·· [VIDEO] Крёстные отцы / The Mobfathers / Suen lo chor (Герман Яу / Herman Yau) [2016, комедия, криминал, HDRip] [3GP, 320x] VO Дольский Galfimbul 334591136319 MB 0 0 1493825742

18:35

3-Май-17

Еще никто не оставлял запись к записи скачать торрент [VIDEO] Крёстные отцы The Mobfathers . Будь первым!

!Обратная связь