Large Scale Machine Learning with Spark | Watch movie | Manaconda 2: The Second Coming

Скачать через торрент [MULT] Сказка о рыбаке и рыбке бесплатно русская версия torrent активатор

Статистика раздачи
Размер:  405 MB   |    Зарегистрирован:  1 год 2 месяца   |    .torrent скачан:  28 раз   |   
Раздают:  1  
   
загрузка...
 
Автор Сообщение

Galfimbul

avatar Galfimbul


Сказка о рыбаке и рыбке<hr class="post-hr">
<hr class="post-hr">Год выпуска: 1950
Страна: СССР
Жанр: мультфильм, короткометражка, фэнтези, семейный
Продолжительность: 00:30:11
Перевод: не требуется
Cубтитры: нет<hr class="post-hr">Режиссер: Михаил Цехановский<hr class="post-hr">Роли озвучивали: Анастасия Зуева, Мария Бабанова, Борис Чирков, Владимир Грибков<hr class="post-hr">Описание: Жили-были старик со старухой у самого синего моря. Закинул невод старик в море и поймал рыбку, да не простую, а золотую…<hr class="post-hr"> Релиз группы <hr class="post-hr">Качество: BDRip / рип с Blu-ray disc 1080i
Формат: MP4
Видео кодек: H.264
Аудио кодек: AAC
Видео: 728x536 AR:1.36 1740 kbps 25 fps
Аудио : 2ch 48 kHz 128 kbps<hr class="post-hr">
avs [info]: 728x536p 1:1 @ 25/1 fps (cfr)
x264 [info]: using SAR=1/1
x264 [info]: using cpu capabilities: MMX2 SSE2Fast SSSE3 SSE4.2 AVX FMA3 AVX2 LZCNT BMI2
x264 [info]: profile High, level 4.1

x264 [info]: frame I:257 Avg QP:20.36 size: 40402
x264 [info]: frame P:10853 Avg QP:23.32 size: 16017
x264 [info]: frame B:34169 Avg QP:25.19 size: 6142
x264 [info]: consecutive B-frames: 1.4% 1.8% 8.1% 50.9% 21.2% 11.1% 3.6% 1.9%
x264 [info]: mb I I16..4: 3.6% 80.6% 15.8%
x264 [info]: mb P I16..4: 1.1% 12.2% 1.6% P16..4: 41.2% 34.7% 8.0% 0.0% 0.0% skip: 1.2%
x264 [info]: mb B I16..4: 0.1% 2.1% 0.2% B16..8: 34.1% 16.9% 2.8% direct: 8.9% skip:34.8% L0:46.9% L1:44.7% BI: 8.4%
x264 [info]: 8x8 transform intra:82.9% inter:74.5%
x264 [info]: direct mvs spatial:98.5% temporal:1.5%
x264 [info]: coded y,uvDC,uvAC intra: 86.2% 70.6% 38.8% inter: 31.4% 35.3% 7.1%
x264 [info]: i16 v,h,dc,p: 14% 22% 5% 59%
x264 [info]: i8 v,h,dc,ddl,ddr,vr,hd,vl,hu: 7% 9% 4% 10% 14% 13% 15% 12% 16%
x264 [info]: i4 v,h,dc,ddl,ddr,vr,hd,vl,hu: 11% 10% 5% 8% 14% 13% 14% 10% 15%
x264 [info]: i8c dc,h,v,p: 33% 34% 18% 15%
x264 [info]: Weighted P-Frames: Y:53.9% UV:41.7%
x264 [info]: ref P L0: 39.0% 11.1% 14.6% 8.2% 6.2% 5.4% 4.4% 2.8% 2.4% 2.3% 2.2% 1.4% 0.0%
x264 [info]: ref B L0: 68.7% 11.2% 5.9% 3.6% 2.8% 2.5% 2.0% 1.4% 1.0% 0.7%
x264 [info]: ref B L1: 96.0% 4.0%
x264 [info]: kb/s:1740.64

encoded 45279 frames, 13.97 fps, 1740.65 kb/s
GeneralComplete name : D:\Torrents\Сказка о рыбаке и рыбке.1950.BDRip.x264.960x.rip by Frost O.S.mp4Format : MPEG-4Format profile : Base MediaCodec ID : isom (isom/avc1)File size : 405 MiBDuration : 30 min 11 sOverall bit rate mode : VariableOverall bit rate : 1 878 kb/sMovie name : Сказка о рыбаке и рыбке 1950 BDRip x264 960x rip by Frost O SGenre : AnimationContentType : Short FilmEncoded date : UTC 2017-05-02 14:24:11Tagged date : UTC 2017-05-02 14:24:37Writing application : MkvToMp4 version: 0.224 (x64)Cover : YesComment : rip by Frost O.S

VideoID : 1Format : AVCFormat/Info : Advanced Video CodecFormat profile : [email protected] settings, CABAC : YesFormat settings, ReFrames : 11 framesCodec ID : avc1Codec ID/Info : Advanced Video CodingDuration : 30 min 11 sBit rate : 1 740 kb/sMaximum bit rate : 4 192 kb/sWidth : 728 pixelsHeight : 536 pixelsDisplay aspect ratio : 4:3Frame rate mode : ConstantFrame rate : 25.000 FPSColor space : YUVChroma subsampling : 4:2:0Bit depth : 8 bitsScan type : ProgressiveBits/(Pixel*Frame) : 0.178Stream size : 376 MiB (93%)Writing library : x264 core 148 r2744 b97ae06Encoding settings : cabac=1 / ref=11 / deblock=1:-1:-1 / analyse=0x3:0x113 / me=umh / subme=11 / psy=1 / psy_rd=0.80:0.00 / mixed_ref=1 / me_range=32 / chroma_me=1 / trellis=2 / 8x8dct=1 / cqm=0 / deadzone=21,11 / fast_pskip=0 / chroma_qp_offset=-2 / threads=6 / lookahead_threads=1 / sliced_threads=0 / nr=0 / decimate=0 / interlaced=0 / bluray_compat=0 / constrained_intra=0 / bframes=7 / b_pyramid=2 / b_adapt=2 / b_bias=0 / direct=3 / weightb=1 / open_gop=0 / weightp=2 / keyint=250 / keyint_min=25 / scenecut=40 / intra_refresh=0 / rc=2pass / mbtree=0 / bitrate=1740 / ratetol=1.0 / qcomp=0.65 / qpmin=0 / qpmax=69 / qpstep=4 / cplxblur=20.0 / qblur=0.5 / ip_ratio=1.40 / pb_ratio=1.30 / aq=1:0.80Language : EnglishEncoded date : UTC 2017-05-02 14:24:11Tagged date : UTC 2017-05-02 14:24:23Color range : LimitedColor primaries : BT.709Transfer characteristics : BT.709Matrix coefficients : BT.709

AudioID : 2Format : AACFormat/Info : Advanced Audio CodecFormat profile : LCCodec ID : 40Duration : 30 min 11 sBit rate mode : VariableBit rate : 128 kb/sMaximum bit rate : 135 kb/sChannel(s) : 2 channelsChannel positions : Front: L RSampling rate : 48.0 kHzFrame rate : 46.875 FPS (1024 spf)Compression mode : LossyStream size : 27.6 MiB (7%)Language : RussianDefault : YesAlternate group : 1Encoded date : UTC 2017-05-02 14:24:19Tagged date : UTC 2017-05-02 14:24:23


Трекер:  [ 02-Май-2017 17:00 ]

  

Скачать .torrent

Размер .torrent файла 16 KB


Размер: 405 MB
Хэш (hash) релиза: b07224d95b8ef8fd57dc86c666f1aaf34b73ffbc

Еще никто не оставлял запись к записи скачать торрент [MULT] Сказка о рыбаке и рыбке . Будь первым!

!Обратная связь