Eureka Seven Subtitle Indonesia | Episode 19 | Language Knowledge for Primary Teachers 4th edition

Скачать через торрент [MULT] Сказка о мертвой царевне и о семи богатырях бесплатно русская версия torrent активатор

Статистика раздачи
Размер:  457 MB   |    Зарегистрирован:  1 год 2 месяца   |    .torrent скачан:  27 раз   |   
Раздают:  1  
   
загрузка...
 
Автор Сообщение

Galfimbul

avatar Galfimbul


Сказка о мертвой царевне и о семи богатырях<hr class="post-hr">
<hr class="post-hr">Год выпуска: 1951
Страна: СССР
Жанр: мультфильм, короткометражка, фэнтези, мелодрама, семейный
Продолжительность: 00:29:57
Перевод: не требуется
Cубтитры: нет<hr class="post-hr">Режиссер: Иван Иванов-Вано<hr class="post-hr">Описание: Мультипликационный фильм по сказке А. С. Пушкина. Новая жена царя хочет избавиться от своей падчерицы и отправляет её в лес на верную гибель. Царевна находит приют в лесной чаще у семи богатырей. Царица, узнав об этом, обманом отравляет её…<hr class="post-hr"> Релиз группы <hr class="post-hr">Качество: BDRip / рип с Blu-ray disc 1080i
Формат: MP4
Видео кодек: H.264
Аудио кодек: AAC
Видео: 734x536 AR:1.37 1994 kbps 25 fps
Аудио : 2ch 48 kHz 128 kbps<hr class="post-hr">
avs [info]: 734x536p 1:1 @ 25/1 fps (cfr)
x264 [info]: using SAR=1/1
x264 [info]: using cpu capabilities: MMX2 SSE2Fast SSSE3 SSE4.2 AVX FMA3 AVX2 LZCNT BMI2
x264 [info]: profile High, level 4.1

x264 [info]: frame I:279 Avg QP:22.69 size: 42447
x264 [info]: frame P:10326 Avg QP:24.47 size: 17119
x264 [info]: frame B:34333 Avg QP:26.77 size: 7556
x264 [info]: consecutive B-frames: 1.6% 2.1% 7.6% 40.8% 20.7% 15.0% 6.1% 2.8% 1.8% 1.6%
x264 [info]: mb I I16..4: 2.7% 80.8% 16.5%
x264 [info]: mb P I16..4: 0.4% 11.1% 1.5% P16..4: 37.1% 35.0% 10.8% 0.0% 0.0% skip: 4.0%
x264 [info]: mb B I16..4: 0.1% 2.4% 0.2% B16..8: 33.7% 19.5% 3.6% direct: 9.1% skip:31.4% L0:46.2% L1:40.0% BI:13.7%
x264 [info]: 8x8 transform intra:86.1% inter:70.0%
x264 [info]: coded y,uvDC,uvAC intra: 90.3% 61.2% 23.9% inter: 35.7% 18.8% 1.3%
x264 [info]: i16 v,h,dc,p: 19% 24% 7% 50%
x264 [info]: i8 v,h,dc,ddl,ddr,vr,hd,vl,hu: 10% 7% 5% 10% 14% 13% 14% 12% 16%
x264 [info]: i4 v,h,dc,ddl,ddr,vr,hd,vl,hu: 12% 7% 4% 9% 15% 14% 14% 12% 15%
x264 [info]: i8c dc,h,v,p: 30% 36% 19% 14%
x264 [info]: Weighted P-Frames: Y:63.4% UV:39.9%
x264 [info]: ref P L0: 39.0% 14.6% 13.6% 8.4% 5.5% 4.8% 3.8% 2.5% 2.1% 2.1% 2.0% 1.5% 0.0%
x264 [info]: ref B L0: 68.5% 12.4% 5.7% 3.7% 2.5% 2.4% 1.8% 1.5% 0.9% 0.6%
x264 [info]: ref B L1: 95.4% 4.6%
x264 [info]: kb/s:1994.05

encoded 44938 frames, 12.11 fps, 1994.05 kb/s
GeneralComplete name : D:\Torrents\Сказка о мертвой царевне и о семи богатырях.1951.BDRip.x264.960x.rip by Frost O.S.mp4Format : MPEG-4Format profile : Base MediaCodec ID : isom (isom/avc1)File size : 457 MiBDuration : 29 min 57 sOverall bit rate mode : VariableOverall bit rate : 2 131 kb/sMovie name : Сказка о мертвой царевне и о семи богатырях 1951 BDRip x264 960x rip by Frost O SGenre : AnimationContentType : Short FilmEncoded date : UTC 2017-05-02 14:29:35Tagged date : UTC 2017-05-02 14:29:59Writing application : MkvToMp4 version: 0.224 (x64)Cover : YesComment : rip by Frost O.S

VideoID : 1Format : AVCFormat/Info : Advanced Video CodecFormat profile : [email protected] settings, CABAC : YesFormat settings, ReFrames : 11 framesCodec ID : avc1Codec ID/Info : Advanced Video CodingDuration : 29 min 57 sBit rate : 1 994 kb/sMaximum bit rate : 5 677 kb/sWidth : 734 pixelsHeight : 536 pixelsDisplay aspect ratio : 4:3Frame rate mode : ConstantFrame rate : 25.000 FPSColor space : YUVChroma subsampling : 4:2:0Bit depth : 8 bitsScan type : ProgressiveBits/(Pixel*Frame) : 0.203Stream size : 427 MiB (94%)Writing library : x264 core 148 r2744 b97ae06Encoding settings : cabac=1 / ref=11 / deblock=1:-2:-2 / analyse=0x3:0x113 / me=umh / subme=11 / psy=1 / psy_rd=0.80:0.00 / mixed_ref=1 / me_range=32 / chroma_me=1 / trellis=2 / 8x8dct=1 / cqm=0 / deadzone=21,11 / fast_pskip=1 / chroma_qp_offset=-2 / threads=6 / lookahead_threads=1 / sliced_threads=0 / nr=0 / decimate=1 / interlaced=0 / bluray_compat=0 / constrained_intra=0 / bframes=9 / b_pyramid=2 / b_adapt=2 / b_bias=0 / direct=1 / weightb=1 / open_gop=0 / weightp=2 / keyint=250 / keyint_min=25 / scenecut=40 / intra_refresh=0 / rc=crf / mbtree=0 / crf=20.5 / qcomp=0.65 / qpmin=0 / qpmax=69 / qpstep=4 / ip_ratio=1.40 / pb_ratio=1.30 / aq=1:0.70Language : EnglishEncoded date : UTC 2017-05-02 14:29:35Tagged date : UTC 2017-05-02 14:29:44Color range : LimitedColor primaries : BT.709Transfer characteristics : BT.709Matrix coefficients : BT.709

AudioID : 2Format : AACFormat/Info : Advanced Audio CodecFormat profile : LCCodec ID : 40Duration : 29 min 57 sBit rate mode : VariableBit rate : 128 kb/sMaximum bit rate : 135 kb/sChannel(s) : 2 channelsChannel positions : Front: L RSampling rate : 48.0 kHzFrame rate : 46.875 FPS (1024 spf)Compression mode : LossyStream size : 27.4 MiB (6%)Language : RussianDefault : YesAlternate group : 1Encoded date : UTC 2017-05-02 14:29:40Tagged date : UTC 2017-05-02 14:29:44


Трекер:  [ 02-Май-2017 17:00 ]

  

Скачать .torrent

Размер .torrent файла 18 KB


Размер: 457 MB
Хэш (hash) релиза: 1f5c2d6a94e0d79dceb582d8c62348e735acad3a

Еще никто не оставлял запись к записи скачать торрент [MULT] Сказка о мертвой царевне и о семи богатырях . Будь первым!

!Обратная связь