Most Rated in Productivity | More Details | HD Views: 132 Reunion 2 The Bachelor Party(2016)

Скачать через торрент [MULT] Сказка о золотом петушке бесплатно русская версия torrent активатор

Статистика раздачи
Размер:  402 MB   |    Зарегистрирован:  1 год 2 месяца   |    .torrent скачан:  23 раза   |   
Раздают:  1  
   
загрузка...
 
Автор Сообщение

Galfimbul

avatar Galfimbul


Сказка о золотом петушке<hr class="post-hr">
<hr class="post-hr">Год выпуска: 1967
Страна: СССР
Жанр: мультфильм, фэнтези, драма, семейный, короткометражка
Продолжительность: 00:29:57
Перевод: не требуется
Cубтитры: нет<hr class="post-hr">Режиссер: Александра Снежко-Блоцкая<hr class="post-hr">Роли озвучивали: Алексей Грибов, Степан Бубнов, Алексей Консовский, Анатолий Кубацкий, Юрий Медведев, Леонид Пирогов, Мария Виноградова, Георгий Вицин, Лидия Рюмина<hr class="post-hr">Описание: Экранизация одноименной сказки Пушкина.<hr class="post-hr"> Релиз группы <hr class="post-hr">Качество: BDRip / рип с Blu-ray disc 1080i
Формат: MP4
Видео кодек: H.264
Аудио кодек: AAC
Видео: 726x536 AR:1.35 1740 kbps 25 fps
Аудио : 2ch 48 kHz 128 kbps<hr class="post-hr">
avs [info]: 726x536p 1:1 @ 25/1 fps (cfr)
x264 [info]: using SAR=1/1
x264 [info]: using cpu capabilities: MMX2 SSE2Fast SSSE3 SSE4.2 AVX FMA3 AVX2 LZCNT BMI2
x264 [info]: profile High, level 4.1

x264 [info]: frame I:309 Avg QP:20.19 size: 45777
x264 [info]: frame P:11131 Avg QP:23.17 size: 16198
x264 [info]: frame B:33500 Avg QP:24.92 size: 5866
x264 [info]: consecutive B-frames: 1.7% 2.8% 10.2% 49.4% 22.5% 10.1% 2.5% 0.8%
x264 [info]: mb I I16..4: 2.0% 77.5% 20.5%
x264 [info]: mb P I16..4: 0.8% 8.2% 1.2% P16..4: 41.3% 37.0% 10.3% 0.0% 0.0% skip: 1.2%
x264 [info]: mb B I16..4: 0.1% 1.2% 0.1% B16..8: 33.9% 17.5% 3.2% direct: 7.1% skip:36.7% L0:46.5% L1:43.7% BI: 9.8%
x264 [info]: 8x8 transform intra:80.8% inter:69.6%
x264 [info]: direct mvs spatial:98.0% temporal:2.0%
x264 [info]: coded y,uvDC,uvAC intra: 84.1% 70.7% 44.2% inter: 28.0% 28.5% 9.6%
x264 [info]: i16 v,h,dc,p: 28% 28% 8% 36%
x264 [info]: i8 v,h,dc,ddl,ddr,vr,hd,vl,hu: 8% 7% 7% 12% 15% 14% 12% 12% 13%
x264 [info]: i4 v,h,dc,ddl,ddr,vr,hd,vl,hu: 14% 10% 6% 9% 14% 13% 12% 10% 12%
x264 [info]: i8c dc,h,v,p: 38% 29% 22% 11%
x264 [info]: Weighted P-Frames: Y:55.0% UV:30.6%
x264 [info]: ref P L0: 38.5% 11.7% 13.2% 7.7% 6.1% 5.6% 4.8% 3.1% 2.7% 2.6% 2.5% 1.7% 0.0%
x264 [info]: ref B L0: 72.5% 10.1% 5.0% 3.1% 2.5% 2.2% 1.8% 1.3% 0.9% 0.7%
x264 [info]: ref B L1: 96.8% 3.2%
x264 [info]: kb/s:1739.87

encoded 44940 frames, 14.42 fps, 1739.87 kb/s
GeneralComplete name : D:\Torrents\Сказка о золотом петушке.1967.BDRip.x264.960x.rip by Frost O.S.mp4Format : MPEG-4Format profile : Base MediaCodec ID : isom (isom/avc1)File size : 402 MiBDuration : 29 min 57 sOverall bit rate mode : VariableOverall bit rate : 1 876 kb/sMovie name : Сказка о золотом петушке 1967 BDRip x264 960x rip by Frost O SGenre : AnimationContentType : Short FilmEncoded date : UTC 2017-05-02 14:34:05Tagged date : UTC 2017-05-02 14:34:28Writing application : MkvToMp4 version: 0.224 (x64)Cover : YesComment : rip by Frost O.S

VideoID : 1Format : AVCFormat/Info : Advanced Video CodecFormat profile : [email protected] settings, CABAC : YesFormat settings, ReFrames : 11 framesCodec ID : avc1Codec ID/Info : Advanced Video CodingDuration : 29 min 57 sBit rate : 1 740 kb/sMaximum bit rate : 8 187 kb/sWidth : 726 pixelsHeight : 536 pixelsDisplay aspect ratio : 4:3Frame rate mode : ConstantFrame rate : 25.000 FPSColor space : YUVChroma subsampling : 4:2:0Bit depth : 8 bitsScan type : ProgressiveBits/(Pixel*Frame) : 0.179Stream size : 373 MiB (93%)Writing library : x264 core 148 r2744 b97ae06Encoding settings : cabac=1 / ref=11 / deblock=1:-1:-1 / analyse=0x3:0x113 / me=umh / subme=11 / psy=1 / psy_rd=0.80:0.00 / mixed_ref=1 / me_range=32 / chroma_me=1 / trellis=2 / 8x8dct=1 / cqm=0 / deadzone=21,11 / fast_pskip=0 / chroma_qp_offset=-2 / threads=6 / lookahead_threads=1 / sliced_threads=0 / nr=0 / decimate=0 / interlaced=0 / bluray_compat=0 / constrained_intra=0 / bframes=7 / b_pyramid=2 / b_adapt=2 / b_bias=0 / direct=3 / weightb=1 / open_gop=0 / weightp=2 / keyint=250 / keyint_min=25 / scenecut=40 / intra_refresh=0 / rc=2pass / mbtree=0 / bitrate=1740 / ratetol=1.0 / qcomp=0.65 / qpmin=0 / qpmax=69 / qpstep=4 / cplxblur=20.0 / qblur=0.5 / ip_ratio=1.40 / pb_ratio=1.30 / aq=1:0.80Language : EnglishEncoded date : UTC 2017-05-02 14:34:05Tagged date : UTC 2017-05-02 14:34:14Color range : LimitedColor primaries : BT.709Transfer characteristics : BT.709Matrix coefficients : BT.709

AudioID : 2Format : AACFormat/Info : Advanced Audio CodecFormat profile : LCCodec ID : 40Duration : 29 min 57 sBit rate mode : VariableBit rate : 128 kb/sMaximum bit rate : 135 kb/sChannel(s) : 2 channelsChannel positions : Front: L RSampling rate : 48.0 kHzFrame rate : 46.875 FPS (1024 spf)Compression mode : LossyStream size : 27.4 MiB (7%)Language : RussianDefault : YesAlternate group : 1Encoded date : UTC 2017-05-02 14:34:11Tagged date : UTC 2017-05-02 14:34:14


Трекер:  [ 02-Май-2017 17:00 ]

  

Скачать .torrent

Размер .torrent файла 16 KB


Размер: 402 MB
Хэш (hash) релиза: 0425e24f1ec79ce53111f2b81a00712ff7627a3a

Еще никто не оставлял запись к записи скачать торрент [MULT] Сказка о золотом петушке . Будь первым!

!Обратная связь