Manhattan Night | Microsoft Office: Mac 2011 | Die Nachbarn

Скачать через торрент [MULT] Сказка о попе и о работнике его Балде бесплатно русская версия torrent активатор

Статистика раздачи
Размер:  205 MB   |    Зарегистрирован:  1 год 2 месяца   |    .torrent скачан:  27 раз   |   
Раздают:  1  
   
загрузка...
 
Автор Сообщение

Galfimbul

avatar Galfimbul


Сказка о попе и о работнике его Балде<hr class="post-hr">
<hr class="post-hr">Год выпуска: 1973
Страна: СССР
Жанр: мультфильм, короткометражка
Продолжительность: 00:18:40
Перевод: не требуется
Cубтитры: нет<hr class="post-hr">Режиссер: Инесса Ковалевская<hr class="post-hr">Роли озвучивали: Олег Анофриев<hr class="post-hr">Описание: Музыкальное представление по мотивам сказки Пушкина.<hr class="post-hr"> Релиз группы <hr class="post-hr">Качество: BDRip / рип с Blu-ray disc 1080i
Формат: MP4
Видео кодек: H.264
Аудио кодек: AAC
Видео: 710x536 AR:1.32 1400 kbps 25 fps
Аудио : 2ch 48 kHz 128 kbps<hr class="post-hr">
avs [info]: 710x536p 1:1 @ 25/1 fps (cfr)
x264 [info]: using SAR=1/1
x264 [info]: using cpu capabilities: MMX2 SSE2Fast SSSE3 SSE4.2 AVX FMA3 AVX2 LZCNT BMI2
x264 [info]: profile High, level 4.1

x264 [info]: frame I:195 Avg QP:18.78 size: 36795
x264 [info]: frame P:7174 Avg QP:22.10 size: 12954
x264 [info]: frame B:20644 Avg QP:23.10 size: 4647
x264 [info]: consecutive B-frames: 3.1% 4.1% 11.6% 41.1% 20.3% 9.9% 4.7% 2.4% 2.0% 0.7%
x264 [info]: mb I I16..4: 3.1% 79.5% 17.3%
x264 [info]: mb P I16..4: 0.6% 5.6% 1.3% P16..4: 46.0% 37.0% 8.6% 0.0% 0.0% skip: 1.0%
x264 [info]: mb B I16..4: 0.1% 0.5% 0.1% B16..8: 39.4% 18.5% 2.5% direct: 5.2% skip:33.8% L0:54.4% L1:40.0% BI: 5.6%
x264 [info]: 8x8 transform intra:75.4% inter:76.8%
x264 [info]: direct mvs spatial:98.9% temporal:1.1%
x264 [info]: coded y,uvDC,uvAC intra: 84.7% 82.5% 58.0% inter: 26.4% 36.0% 5.1%
x264 [info]: i16 v,h,dc,p: 47% 22% 5% 26%
x264 [info]: i8 v,h,dc,ddl,ddr,vr,hd,vl,hu: 12% 10% 3% 10% 14% 13% 14% 12% 14%
x264 [info]: i4 v,h,dc,ddl,ddr,vr,hd,vl,hu: 18% 11% 3% 8% 15% 14% 13% 9% 10%
x264 [info]: i8c dc,h,v,p: 33% 32% 23% 13%
x264 [info]: Weighted P-Frames: Y:40.3% UV:25.3%
x264 [info]: ref P L0: 39.5% 12.7% 13.9% 7.5% 5.9% 4.9% 4.3% 2.8% 2.6% 2.5% 2.5% 1.1% 0.0%
x264 [info]: ref B L0: 59.6% 13.9% 8.1% 4.7% 3.7% 3.2% 2.7% 1.9% 1.4% 0.8%
x264 [info]: ref B L1: 93.6% 6.4%
x264 [info]: kb/s:1399.62

encoded 28013 frames, 14.76 fps, 1399.63 kb/s
GeneralComplete name : D:\Torrents\Сказка о попе и о работнике его Балде.1973.BDRip.x264.960x.rip by Frost O.S.mp4Format : MPEG-4Format profile : Base MediaCodec ID : isom (isom/avc1)File size : 205 MiBDuration : 18 min 40 sOverall bit rate mode : VariableOverall bit rate : 1 537 kb/sMovie name : Сказка о попе и о работнике его Балде 1973 BDRip x264 960x rip by Frost O SGenre : AnimationContentType : Short FilmEncoded date : UTC 2017-05-02 14:38:17Tagged date : UTC 2017-05-02 14:38:27Writing application : MkvToMp4 version: 0.224 (x64)Cover : YesComment : rip by Frost O.S

VideoID : 1Format : AVCFormat/Info : Advanced Video CodecFormat profile : [email protected] settings, CABAC : YesFormat settings, ReFrames : 11 framesCodec ID : avc1Codec ID/Info : Advanced Video CodingDuration : 18 min 40 sBit rate : 1 400 kb/sMaximum bit rate : 3 187 kb/sWidth : 710 pixelsHeight : 536 pixelsDisplay aspect ratio : 4:3Frame rate mode : ConstantFrame rate : 25.000 FPSColor space : YUVChroma subsampling : 4:2:0Bit depth : 8 bitsScan type : ProgressiveBits/(Pixel*Frame) : 0.147Stream size : 187 MiB (91%)Writing library : x264 core 148 r2744 b97ae06Encoding settings : cabac=1 / ref=11 / deblock=1:-1:-1 / analyse=0x3:0x113 / me=umh / subme=11 / psy=1 / psy_rd=0.80:0.00 / mixed_ref=1 / me_range=32 / chroma_me=1 / trellis=2 / 8x8dct=1 / cqm=0 / deadzone=21,11 / fast_pskip=0 / chroma_qp_offset=-2 / threads=6 / lookahead_threads=1 / sliced_threads=0 / nr=0 / decimate=0 / interlaced=0 / bluray_compat=0 / constrained_intra=0 / bframes=9 / b_pyramid=2 / b_adapt=2 / b_bias=0 / direct=3 / weightb=1 / open_gop=0 / weightp=2 / keyint=250 / keyint_min=25 / scenecut=40 / intra_refresh=0 / rc=2pass / mbtree=0 / bitrate=1400 / ratetol=1.0 / qcomp=0.65 / qpmin=0 / qpmax=69 / qpstep=4 / cplxblur=20.0 / qblur=0.5 / ip_ratio=1.40 / pb_ratio=1.30 / aq=1:0.80Language : EnglishEncoded date : UTC 2017-05-02 14:38:17Tagged date : UTC 2017-05-02 14:38:21Color range : LimitedColor primaries : BT.709Transfer characteristics : BT.709Matrix coefficients : BT.709

AudioID : 2Format : AACFormat/Info : Advanced Audio CodecFormat profile : LCCodec ID : 40Duration : 18 min 40 sBit rate mode : VariableBit rate : 128 kb/sMaximum bit rate : 135 kb/sChannel(s) : 2 channelsChannel positions : Front: L RSampling rate : 48.0 kHzFrame rate : 46.875 FPS (1024 spf)Compression mode : LossyStream size : 17.1 MiB (8%)Language : RussianDefault : YesAlternate group : 1Encoded date : UTC 2017-05-02 14:38:21Tagged date : UTC 2017-05-02 14:38:21


Трекер:  [ 02-Май-2017 17:00 ]

  

Скачать .torrent

Размер .torrent файла 16 KB


Размер: 205 MB
Хэш (hash) релиза: e6de2ef200cf0d4ba11e02ef65744f39a96e001f

Еще никто не оставлял запись к записи скачать торрент [MULT] Сказка о попе и о работнике его Балде . Будь первым!

!Обратная связь