Park Exhibition JK [Ver1.01] (Double melon) [cen] [2015, jRPG, Student, Uniform, Creampie, Exposure, Rape, Group, Pissing/Pee, Big Breasts/Big Tits, Oral, Titsjob, Pubic Hair, Virgin] [rus] | game of thrones s06e03 | Michael Straka

Скачать через торрент [MULT] Сказка о царе Салтане бесплатно русская версия torrent активатор

Статистика раздачи
Размер:  713 MB   |    Зарегистрирован:  1 год 2 месяца   |    .torrent скачан:  21 раз   |   
Раздают:  1  
   
загрузка...
 
Автор Сообщение

Galfimbul

avatar Galfimbul


Сказка о царе Салтане<hr class="post-hr">
<hr class="post-hr">Год выпуска: 1984
Страна: СССР
Жанр: мультфильм, фэнтези, семейный
Продолжительность: 00:53:05
Перевод: не требуется
Cубтитры: нет<hr class="post-hr">Режиссеры: Иван Иванов-Вано, Лев Мильчин<hr class="post-hr">Роли озвучивали: Анастасия Зуева, Михаил Зимин, Алексей Золотницкий, Роман Филиппов, А. Покровская, Николай Граббе, Мария Виноградова, Борис Новиков, Людмила Иванова, Авангард Леонтьев<hr class="post-hr">Описание: Сказки — это то, что остается у каждого человека от детства. Подарите себе шанс вновь возвратиться в волшебный мир, созданный А. С. Пушкиным.

Приключения отважного царевича Гвидона, прекрасной царевны-Лебедь и царя Салтана напомнят о том, что любовь, верности и сила духа всегда побеждают!.<hr class="post-hr"> Релиз группы <hr class="post-hr">Качество: BDRip / рип с Blu-ray disc 1080i
Формат: MP4
Видео кодек: H.264
Аудио кодек: AAC
Видео: 718x536 AR:1.34 1740 kbps 25 fps
Аудио : 2ch 48 kHz 128 kbps<hr class="post-hr">
avs [info]: 718x536p 1:1 @ 25/1 fps (cfr)
x264 [info]: using SAR=1/1
x264 [info]: using cpu capabilities: MMX2 SSE2Fast SSSE3 SSE4.2 AVX FMA3 AVX2 LZCNT BMI2
x264 [info]: profile High, level 4.1

x264 [info]: frame I:506 Avg QP:21.81 size: 51379
x264 [info]: frame P:19470 Avg QP:24.85 size: 16613
x264 [info]: frame B:59659 Avg QP:26.53 size: 5756
x264 [info]: consecutive B-frames: 1.8% 1.9% 9.0% 51.1% 21.8% 7.8% 3.6% 1.7% 1.2%
x264 [info]: mb I I16..4: 2.9% 72.5% 24.6%
x264 [info]: mb P I16..4: 0.5% 6.6% 1.1% P16..4: 40.3% 37.2% 13.0% 0.0% 0.0% skip: 1.3%
x264 [info]: mb B I16..4: 0.0% 0.8% 0.1% B16..8: 34.6% 18.8% 3.4% direct: 7.2% skip:35.0% L0:47.9% L1:41.9% BI:10.1%
x264 [info]: 8x8 transform intra:80.2% inter:69.8%
x264 [info]: direct mvs spatial:96.7% temporal:3.3%
x264 [info]: coded y,uvDC,uvAC intra: 86.4% 77.9% 50.9% inter: 31.2% 30.1% 10.6%
x264 [info]: i16 v,h,dc,p: 27% 27% 7% 39%
x264 [info]: i8 v,h,dc,ddl,ddr,vr,hd,vl,hu: 9% 6% 6% 11% 14% 14% 13% 13% 14%
x264 [info]: i4 v,h,dc,ddl,ddr,vr,hd,vl,hu: 15% 9% 6% 9% 13% 13% 11% 11% 13%
x264 [info]: i8c dc,h,v,p: 39% 27% 19% 15%
x264 [info]: Weighted P-Frames: Y:34.5% UV:21.5%
x264 [info]: ref P L0: 33.7% 11.5% 15.8% 8.5% 7.1% 5.9% 5.4% 3.1% 2.8% 2.6% 2.7% 1.0% 0.0%
x264 [info]: ref B L0: 65.8% 12.3% 6.4% 3.8% 3.0% 2.9% 2.4% 1.6% 1.1% 0.8%
x264 [info]: ref B L1: 95.6% 4.4%
x264 [info]: kb/s:1740.09

encoded 79635 frames, 14.48 fps, 1740.09 kb/s
GeneralComplete name : D:\Torrents\Сказка о царе Салтане.1984.BDRip.x264.960x.rip by Frost O.S.mp4Format : MPEG-4Format profile : Base MediaCodec ID : isom (isom/avc1)File size : 713 MiBDuration : 53 min 5 sOverall bit rate mode : VariableOverall bit rate : 1 876 kb/sMovie name : Сказка о царе Салтане 1984 BDRip x264 960x rip by Frost O SGenre : AnimationContentType : Short FilmEncoded date : UTC 2017-05-02 14:42:41Tagged date : UTC 2017-05-02 14:43:42Writing application : MkvToMp4 version: 0.224 (x64)Cover : YesComment : rip by Frost O.S

VideoID : 1Format : AVCFormat/Info : Advanced Video CodecFormat profile : [email protected] settings, CABAC : YesFormat settings, ReFrames : 11 framesCodec ID : avc1Codec ID/Info : Advanced Video CodingDuration : 53 min 5 sBit rate : 1 740 kb/sMaximum bit rate : 4 121 kb/sWidth : 718 pixelsHeight : 536 pixelsDisplay aspect ratio : 4:3Frame rate mode : ConstantFrame rate : 25.000 FPSColor space : YUVChroma subsampling : 4:2:0Bit depth : 8 bitsScan type : ProgressiveBits/(Pixel*Frame) : 0.181Stream size : 661 MiB (93%)Writing library : x264 core 148 r2744 b97ae06Encoding settings : cabac=1 / ref=11 / deblock=1:-1:-1 / analyse=0x3:0x113 / me=umh / subme=11 / psy=1 / psy_rd=0.80:0.00 / mixed_ref=1 / me_range=32 / chroma_me=1 / trellis=2 / 8x8dct=1 / cqm=0 / deadzone=21,11 / fast_pskip=0 / chroma_qp_offset=-2 / threads=6 / lookahead_threads=1 / sliced_threads=0 / nr=0 / decimate=0 / interlaced=0 / bluray_compat=0 / constrained_intra=0 / bframes=8 / b_pyramid=2 / b_adapt=2 / b_bias=0 / direct=3 / weightb=1 / open_gop=0 / weightp=2 / keyint=250 / keyint_min=25 / scenecut=40 / intra_refresh=0 / rc=2pass / mbtree=0 / bitrate=1740 / ratetol=1.0 / qcomp=0.65 / qpmin=0 / qpmax=69 / qpstep=4 / cplxblur=20.0 / qblur=0.5 / ip_ratio=1.40 / pb_ratio=1.30 / aq=1:0.80Language : EnglishEncoded date : UTC 2017-05-02 14:42:41Tagged date : UTC 2017-05-02 14:42:58Color range : LimitedColor primaries : BT.709Transfer characteristics : BT.709Matrix coefficients : BT.709

AudioID : 2Format : AACFormat/Info : Advanced Audio CodecFormat profile : LCCodec ID : 40Duration : 53 min 5 sBit rate mode : VariableBit rate : 128 kb/sMaximum bit rate : 135 kb/sChannel(s) : 2 channelsChannel positions : Front: L RSampling rate : 48.0 kHzFrame rate : 46.875 FPS (1024 spf)Compression mode : LossyStream size : 48.6 MiB (7%)Language : RussianDefault : YesAlternate group : 1Encoded date : UTC 2017-05-02 14:42:52Tagged date : UTC 2017-05-02 14:42:58


Трекер:  [ 02-Май-2017 17:00 ]

  

Скачать .torrent

Размер .torrent файла 14 KB


Размер: 713 MB
Хэш (hash) релиза: 3f2ce341c20f168f590f2cd2e7e6b964096901ef

Еще никто не оставлял запись к записи скачать торрент [MULT] Сказка о царе Салтане . Будь первым!

!Обратная связь