Once Upon a Time 2011 S07E16 Breadcrumbs 720p NF WEB-DL DD5 1 x264-NTb [eztv] 35 minutes
Tron Uprising S01E18 VOSTFR HDTV

Скачать через торрент [VIDEO] Красная жара Red бесплатно русская версия torrent активатор

Статистика раздачи
Размер:  2.23 GB   |    Зарегистрирован:  11 месяцев   |    .torrent скачан:  25 раз   |   
Раздают:  1  
   
загрузка...
 
Автор Сообщение

Galfimbul

avatar Galfimbul


Красная жара / Red Heat

«Moscow's toughest detective. Chicago's craziest cop. There's only one thing worse than making them mad. Making them partners»

Год выпуска: 1988
Страна: США
Жанр: боевик, триллер, комедия, криминал
Продолжительность: 01:44:21
Перевод №1: русский Профессиональный (двухголосый, закадровый) R5
Перевод №2: русский Профессиональный (двухголосый, закадровый) ТВ6
Перевод №3: русский Профессиональный (многоголосый, закадровый) Карусель
Перевод №4: русский Профессиональный (многоголосый, закадровый) ОРТ
Перевод №5: русский Авторский (одноголосый, закадровый) Дмитрий «Гоблин» Пучков
Перевод №6: русский Авторский (одноголосый, закадровый) А. Гаврилов
Перевод №7: русский Авторский (одноголосый, закадровый) Л.Володарский
Перевод №8: русский Авторский (одноголосый, закадровый) В.Горчаков
Перевод №9: русский Авторский (одноголосый, закадровый) Ю.Живов
Оригинальная дорожка: Есть
Cубтитры: русские (R5, Гоблин), английские (полные)
Режиссер: Уолтер Хилл / Walter Hill
В ролях: Арнольд Шварценеггер (Ivan Danko), Джеймс Белуши (Art Ridzik), Питер Бойл (Lou Donnelly), Эд О'Росс (Viktor Rostavili), Лоуренс Фишбёрн (Lt. Stobbs), Джина Гершон (Cat Manzetti), Ричард Брайт (Sgt. Gallagher), Дж.В. Смит (Salim), Брент Дженнингс (Abdul Elijah), Гретхен Палмер (Hooker) и другие .
Описание: В доперестроечные времена торговля наркотиками была из ряда вон выходящим преступлением. На борьбу с грузинским мафиози, который используя все связи США, пытается пристрастить к кокаину советских граждан, выходит гроза преступного мира милиционер Иван Данко. Этот парень не любит шутить, и доказательством серьезности его намерений служат большие мускулы и пистолет. Чтобы арестовать бандита, Иван направляется в Чикаго — рассадник капиталистической заразы. Там его помощником становится болтливый полицейский. Вместе они обезвреживают мафиози, разрушив при этом полгорода и расстреляв пару десятков негодяев.
Релиз группы
Качество: BDRip / рип с BDRemux 1080p (HDClub)
Формат: MP4
Видео кодек: H.264
Аудио кодек: AAC
Видео: 960x540 AR:1.78 1740 kbps 23.976 fps
Аудио №1: [Russian] 2ch 48 kHz 128 kbps - [DVO] Профессиональный (двухголосый, закадровый) R5
Аудио №2: [Russian] 2ch 48 kHz 128 kbps - [DVO] Профессиональный (двухголосый, закадровый) ТВ6
Аудио №3: [Russian] 2ch 48 kHz 128 kbps - [MVO] Профессиональный (многоголосый, закадровый) Карусель
Аудио №4: [Russian] 2ch 48 kHz 128 kbps - [MVO] Профессиональный (многоголосый, закадровый) ОРТ
Аудио №5: [Russian] 2ch 48 kHz 128 kbps - [VO] Авторский (одноголосый, закадровый) Дмитрий Пучков (Гоблин)
Аудио №6: [Russian] 2ch 48 kHz 128 kbps - [VO] Авторский (одноголосый, закадровый) А. Гаврилов
Аудио №7: [Russian] 2ch 48 kHz 128 kbps - [VO] Авторский (одноголосый, закадровый) Л.Володарский
Аудио №8: [Russian] 2ch 48 kHz 128 kbps - [VO] Авторский (одноголосый, закадровый) В.Горчаков
Аудио №9: [Russian] 2ch 48 kHz 128 kbps - [VO] Авторский (одноголосый, закадровый) Ю. Живов
Аудио №10: [English] 2ch 48 kHz 128 kbps - Оригинал (английский)
avs [info]: 960x540p 1:1 @ 2997/125 fps (cfr)
x264 [info]: using SAR=1/1
x264 [info]: using cpu capabilities: MMX2 SSE2Fast SSSE3 SSE4.2 AVX FMA3 AVX2 LZCNT BMI2
x264 [info]: profile High, level 4.1

x264 [info]: frame I:1070 Avg QP:17.43 size: 75511
x264 [info]: frame P:34027 Avg QP:20.51 size: 18824
x264 [info]: frame B:115019 Avg QP:22.21 size: 5562
x264 [info]: consecutive B-frames: 2.1% 3.3% 13.2% 15.9% 13.6% 48.6% 2.7% 0.7%
x264 [info]: mb I I16..4: 4.0% 84.4% 11.6%
x264 [info]: mb P I16..4: 1.0% 8.0% 1.2% P16..4: 37.6% 41.1% 8.9% 0.0% 0.0% skip: 2.2%
x264 [info]: mb B I16..4: 0.0% 0.5% 0.1% B16..8: 40.5% 17.5% 1.9% direct: 3.8% skip:35.7% L0:45.7% L1:48.3% BI: 6.0%
x264 [info]: 8x8 transform intra:80.3% inter:65.8%
x264 [info]: direct mvs spatial:99.3% temporal:0.7%
x264 [info]: coded y,uvDC,uvAC intra: 91.6% 85.1% 48.5% inter: 22.4% 21.9% 4.7%
x264 [info]: i16 v,h,dc,p: 16% 18% 4% 62%
x264 [info]: i8 v,h,dc,ddl,ddr,vr,hd,vl,hu: 6% 5% 4% 12% 18% 16% 15% 12% 12%
x264 [info]: i4 v,h,dc,ddl,ddr,vr,hd,vl,hu: 9% 7% 2% 10% 16% 16% 15% 12% 13%
x264 [info]: i8c dc,h,v,p: 36% 24% 20% 20%
x264 [info]: Weighted P-Frames: Y:12.9% UV:7.3%
x264 [info]: ref P L0: 45.2% 9.8% 18.5% 6.6% 5.7% 4.0% 3.9% 2.0% 2.1% 1.9% 0.3% 0.0%
x264 [info]: ref B L0: 79.6% 9.1% 4.2% 2.2% 1.6% 1.4% 1.1% 0.6% 0.3%
x264 [info]: ref B L1: 96.2% 3.8%
x264 [info]: kb/s:1739.06

encoded 150116 frames, 11.39 fps, 1739.06 kb/s
GeneralComplete name : D:\Torrents\Red Heat.1988.BDRip.x264.960x.rip by Frost O.S.mp4Format : MPEG-4Format profile : Base MediaCodec ID : isom (isom/avc1/iso2)File size : 2.23 GiBDuration : 1 h 44 minOverall bit rate mode : VariableOverall bit rate : 3 059 kb/sMovie name : Red Heat 1988 BDRip x264 960x rip by Frost O SDirector : Уолтер Хилл / Walter HillActor : Арнольд Шварценеггер (Ivan Danko) / Джеймс Белуши (Art Ridzik) / Питер Бойл (Lou Donnelly) / Эд О'Росс (Viktor Rostavili) / Лоуренс Фишбёрн (Lt. Stobbs) / Джина Гершон (Cat Manzetti) / Ричард Брайт (Sgt. Gallagher) / Дж.В. Смит (Salim) / Брент Дженнингс (Abdul Elijah) / Гретхен Палмер (Hooker)Genre : ActionContentType : Short FilmEncoded date : UTC 2017-05-01 16:20:27Tagged date : UTC 2017-05-01 16:27:00Writing application : MkvToMp4 version: 0.224 (x64)Cover : YesComment : rip by Frost O.SLongDescription : В доперестроечные времена торговля наркотиками была из ряда вон выходящим преступлением. На борьбу с грузинским мафиози, который используя все связи США, пытается пристрастить к кокаину советских граждан, выходит гроза преступного мира милиционер Иван Данко. Этот парень не любит шутить, и доказательством серьезности его намерений служат большие мускулы и пистолет. Чтобы арестовать бандита, Иван направляется в Чикаго — рассадник капиталистической заразы. Там его помощником становится болтливый полицейский. Вместе они обезвреживают мафиози, разрушив при этом полгорода и расстреляв пару десятков негодяев.

VideoID : 1Format : AVCFormat/Info : Advanced Video CodecFormat profile : [email protected] settings, CABAC : YesFormat settings, ReFrames : 10 framesCodec ID : avc1Codec ID/Info : Advanced Video CodingDuration : 1 h 44 minBit rate : 1 740 kb/sMaximum bit rate : 5 610 kb/sWidth : 960 pixelsHeight : 540 pixelsDisplay aspect ratio : 16:9Frame rate mode : ConstantFrame rate : 23.976 (24000/1001) FPSOriginal frame rate : 23.976 (23976/1000) FPSColor space : YUVChroma subsampling : 4:2:0Bit depth : 8 bitsScan type : ProgressiveBits/(Pixel*Frame) : 0.140Stream size : 1.27 GiB (57%)Writing library : x264 core 148 r2744 b97ae06Encoding settings : cabac=1 / ref=10 / deblock=1:-1:-1 / analyse=0x3:0x113 / me=umh / subme=11 / psy=1 / psy_rd=1.10:0.00 / mixed_ref=1 / me_range=32 / chroma_me=1 / trellis=2 / 8x8dct=1 / cqm=0 / deadzone=21,11 / fast_pskip=0 / chroma_qp_offset=-2 / threads=6 / lookahead_threads=1 / sliced_threads=0 / nr=0 / decimate=0 / interlaced=0 / bluray_compat=0 / constrained_intra=0 / bframes=7 / b_pyramid=2 / b_adapt=2 / b_bias=0 / direct=3 / weightb=1 / open_gop=0 / weightp=2 / keyint=250 / keyint_min=23 / scenecut=40 / intra_refresh=0 / rc=2pass / mbtree=0 / bitrate=1740 / ratetol=1.0 / qcomp=0.70 / qpmin=0 / qpmax=69 / qpstep=4 / cplxblur=20.0 / qblur=0.5 / ip_ratio=1.40 / pb_ratio=1.30 / aq=1:0.80Language : EnglishEncoded date : UTC 2017-05-01 16:20:27Tagged date : UTC 2017-05-01 16:22:17Color range : LimitedColor primaries : BT.709Transfer characteristics : BT.709Matrix coefficients : BT.709

Audio #1ID : 2Format : AACFormat/Info : Advanced Audio CodecFormat profile : LCCodec ID : 40Duration : 1 h 44 minBit rate mode : VariableBit rate : 128 kb/sMaximum bit rate : 135 kb/sChannel(s) : 2 channelsChannel positions : Front: L RSampling rate : 48.0 kHzFrame rate : 46.875 FPS (1024 spf)Compression mode : LossyStream size : 95.5 MiB (4%)Title : DVO_ R5 / DVO_ R5Language : RussianDefault : YesAlternate group : 1Encoded date : UTC 2017-05-01 16:21:14Tagged date : UTC 2017-05-01 16:22:17

Audio #2ID : 3Format : AACFormat/Info : Advanced Audio CodecFormat profile : LCCodec ID : 40Duration : 1 h 44 minBit rate mode : VariableBit rate : 128 kb/sMaximum bit rate : 135 kb/sChannel(s) : 2 channelsChannel positions : Front: L RSampling rate : 48.0 kHzFrame rate : 46.875 FPS (1024 spf)Compression mode : LossyStream size : 95.5 MiB (4%)Title : DVO_TB6 / DVO_TB6Language : RussianDefault : NoAlternate group : 1Encoded date : UTC 2017-05-01 16:21:20Tagged date : UTC 2017-05-01 16:22:17

Audio #3ID : 4Format : AACFormat/Info : Advanced Audio CodecFormat profile : LCCodec ID : 40Duration : 1 h 44 minBit rate mode : VariableBit rate : 128 kb/sMaximum bit rate : 135 kb/sChannel(s) : 2 channelsChannel positions : Front: L RSampling rate : 48.0 kHzFrame rate : 46.875 FPS (1024 spf)Compression mode : LossyStream size : 95.5 MiB (4%)Title : MVO_ Karusel / MVO_ KaruselLanguage : RussianDefault : NoAlternate group : 1Encoded date : UTC 2017-05-01 16:21:28Tagged date : UTC 2017-05-01 16:22:17

Audio #4ID : 5Format : AACFormat/Info : Advanced Audio CodecFormat profile : LCCodec ID : 40Duration : 1 h 44 minBit rate mode : VariableBit rate : 128 kb/sMaximum bit rate : 135 kb/sChannel(s) : 2 channelsChannel positions : Front: L RSampling rate : 48.0 kHzFrame rate : 46.875 FPS (1024 spf)Compression mode : LossyStream size : 95.5 MiB (4%)Title : MVO_ OPT / MVO_ OPTLanguage : RussianDefault : NoAlternate group : 1Encoded date : UTC 2017-05-01 16:21:34Tagged date : UTC 2017-05-01 16:22:17

Audio #5ID : 6Format : AACFormat/Info : Advanced Audio CodecFormat profile : LCCodec ID : 40Duration : 1 h 44 minBit rate mode : VariableBit rate : 128 kb/sMaximum bit rate : 135 kb/sChannel(s) : 2 channelsChannel positions : Front: L RSampling rate : 48.0 kHzFrame rate : 46.875 FPS (1024 spf)Compression mode : LossyStream size : 95.5 MiB (4%)Title : VO_ Goblin / VO_ GoblinLanguage : RussianDefault : NoAlternate group : 1Encoded date : UTC 2017-05-01 16:21:39Tagged date : UTC 2017-05-01 16:22:17

Audio #6ID : 7Format : AACFormat/Info : Advanced Audio CodecFormat profile : LCCodec ID : 40Duration : 1 h 44 minBit rate mode : VariableBit rate : 128 kb/sMaximum bit rate : 135 kb/sChannel(s) : 2 channelsChannel positions : Front: L RSampling rate : 48.0 kHzFrame rate : 46.875 FPS (1024 spf)Compression mode : LossyStream size : 95.5 MiB (4%)Title : VO_ Gavrilov / VO_ GavrilovLanguage : RussianDefault : NoAlternate group : 1Encoded date : UTC 2017-05-01 16:21:44Tagged date : UTC 2017-05-01 16:22:17

Audio #7ID : 8Format : AACFormat/Info : Advanced Audio CodecFormat profile : LCCodec ID : 40Duration : 1 h 44 minBit rate mode : VariableBit rate : 128 kb/sMaximum bit rate : 135 kb/sChannel(s) : 2 channelsChannel positions : Front: L RSampling rate : 48.0 kHzFrame rate : 46.875 FPS (1024 spf)Compression mode : LossyStream size : 95.5 MiB (4%)Title : VO_ Volodarskiy / VO_ VolodarskiyLanguage : RussianDefault : NoAlternate group : 1Encoded date : UTC 2017-05-01 16:21:51Tagged date : UTC 2017-05-01 16:22:17

Audio #8ID : 9Format : AACFormat/Info : Advanced Audio CodecFormat profile : LCCodec ID : 40Duration : 1 h 44 minBit rate mode : VariableBit rate : 128 kb/sMaximum bit rate : 135 kb/sChannel(s) : 2 channelsChannel positions : Front: L RSampling rate : 48.0 kHzFrame rate : 46.875 FPS (1024 spf)Compression mode : LossyStream size : 95.5 MiB (4%)Title : VO_ Gorchakov / VO_ GorchakovLanguage : RussianDefault : NoAlternate group : 1Encoded date : UTC 2017-05-01 16:21:57Tagged date : UTC 2017-05-01 16:22:17

Audio #9ID : 10Format : AACFormat/Info : Advanced Audio CodecFormat profile : LCCodec ID : 40Duration : 1 h 44 minBit rate mode : VariableBit rate : 128 kb/sMaximum bit rate : 135 kb/sChannel(s) : 2 channelsChannel positions : Front: L RSampling rate : 48.0 kHzFrame rate : 46.875 FPS (1024 spf)Compression mode : LossyStream size : 95.5 MiB (4%)Title : VO_ Zhuvov / VO_ ZhuvovLanguage : RussianDefault : NoAlternate group : 1Encoded date : UTC 2017-05-01 16:22:04Tagged date : UTC 2017-05-01 16:22:17

Audio #10ID : 11Format : AACFormat/Info : Advanced Audio CodecFormat profile : LCCodec ID : 40Duration : 1 h 44 minBit rate mode : VariableBit rate : 128 kb/sMaximum bit rate : 135 kb/sChannel(s) : 2 channelsChannel positions : Front: L RSampling rate : 48.0 kHzFrame rate : 46.875 FPS (1024 spf)Compression mode : LossyStream size : 95.5 MiB (4%)Title : Original / OriginalLanguage : EnglishDefault : NoAlternate group : 1Encoded date : UTC 2017-05-01 16:22:11Tagged date : UTC 2017-05-01 16:22:17

Text #1ID : 12Format : Timed TextMuxing mode : sbtlCodec ID : tx3gDuration : 1 h 41 minBit rate mode : VariableBit rate : 95 b/sStream size : 70.3 KiB (0%)Title : R5 / R5Language : RussianDefault : YesForced : NoAlternate group : 2Encoded date : UTC 2017-05-01 16:22:17Tagged date : UTC 2017-05-01 16:22:17

Text #2ID : 13Format : Timed TextMuxing mode : sbtlCodec ID : tx3gDuration : 1 h 40 minBit rate mode : VariableBit rate : 83 b/sStream size : 61.0 KiB (0%)Title : Goblin / GoblinLanguage : RussianDefault : NoForced : NoAlternate group : 2Encoded date : UTC 2017-05-01 16:22:17Tagged date : UTC 2017-05-01 16:22:17

Text #3ID : 14Format : Timed TextMuxing mode : sbtlCodec ID : tx3gDuration : 1 h 40 minBit rate mode : VariableBit rate : 59 b/sStream size : 43.7 KiB (0%)Title : Full / FullLanguage : EnglishDefault : NoForced : NoAlternate group : 2Encoded date : UTC 2017-05-01 16:22:17Tagged date : UTC 2017-05-01 16:22:17


Трекер:  [ 01-Май-2017 18:30 ]

  

Скачать .torrent

Размер .torrent файла 11 KB


Размер: 2.23 GB
Хэш (hash) релиза: b8b0dc46d728b8063d1a1bf946bea3d8a6528cb9

Торренты, похожие на [VIDEO] Красная жара Red скачать торрент

Форум Название Автор Размер S L Добавлен
Видео (Фильмы/Клипы) ·· [VIDEO] Красная жара / Red (Уолтер Хилл / Walter Hill) [1988, боевик, триллер, комедия, криминал, HDRip] [MP4, 480x] DVO R5 Galfimbul 497381480474 MB 0 0 1493651783

18:16

1-Май-17

Еще никто не оставлял запись к записи скачать торрент [VIDEO] Красная жара Red . Будь первым!

!Обратная связь