Anime Maga | épisode 2 streaming Whoever He Is | Coders at Work

Скачать через торрент [VIDEO] Красная жара Red бесплатно русская версия torrent активатор

Статистика раздачи
Размер:  474 MB   |    Зарегистрирован:  1 год 2 месяца   |    .torrent скачан:  23 раза   |   
Раздают:  1  
   
загрузка...
 
Автор Сообщение

Galfimbul

avatar Galfimbul


Красная жара / Red Heat

«Moscow's toughest detective. Chicago's craziest cop. There's only one thing worse than making them mad. Making them partners»

Год выпуска: 1988
Страна: США
Жанр: боевик, триллер, комедия, криминал
Продолжительность: 01:44:21
Перевод: русский Профессиональный (двухголосый, закадровый) R5
Cубтитры: нет
Режиссер: Уолтер Хилл / Walter Hill
В ролях: Арнольд Шварценеггер (Ivan Danko), Джеймс Белуши (Art Ridzik), Питер Бойл (Lou Donnelly), Эд О'Росс (Viktor Rostavili), Лоуренс Фишбёрн (Lt. Stobbs), Джина Гершон (Cat Manzetti), Ричард Брайт (Sgt. Gallagher), Дж.В. Смит (Salim), Брент Дженнингс (Abdul Elijah), Гретхен Палмер (Hooker) и другие .
Описание: В доперестроечные времена торговля наркотиками была из ряда вон выходящим преступлением. На борьбу с грузинским мафиози, который используя все связи США, пытается пристрастить к кокаину советских граждан, выходит гроза преступного мира милиционер Иван Данко. Этот парень не любит шутить, и доказательством серьезности его намерений служат большие мускулы и пистолет. Чтобы арестовать бандита, Иван направляется в Чикаго — рассадник капиталистической заразы. Там его помощником становится болтливый полицейский. Вместе они обезвреживают мафиози, разрушив при этом полгорода и расстреляв пару десятков негодяев.
Релиз группы
Качество: HDRip / рип с BDRip 720p (HDClub)
Формат: MP4
Видео кодек: XviD
Аудио кодек: AAC
Видео: 480x272 AR:1.76 499 kbps 23.976 fps
Аудио: [Russian] 2ch 48 kHz 128 kbps - [DVO] Профессиональный (двухголосый, закадровый) R5
GeneralComplete name : D:\Torrents\Red Heat.1988.HDRip.XviD.480x.rip by Frost O.S.mp4Format : MPEG-4Format profile : Base MediaCodec ID : isom (isom/iso2)File size : 474 MiBDuration : 1 h 44 minOverall bit rate mode : VariableOverall bit rate : 636 kb/sMovie name : Red Heat 1988 HDRip XviD 480x rip by Frost O SDirector : Уолтер Хилл / Walter HillActor : Арнольд Шварценеггер (Ivan Danko) / Джеймс Белуши (Art Ridzik) / Питер Бойл (Lou Donnelly) / Эд О'Росс (Viktor Rostavili) / Лоуренс Фишбёрн (Lt. Stobbs) / Джина Гершон (Cat Manzetti) / Ричард Брайт (Sgt. Gallagher) / Дж.В. Смит (Salim) / Брент Дженнингс (Abdul Elijah) / Гретхен Палмер (Hooker)Genre : ActionContentType : Short FilmEncoded date : UTC 2017-05-01 15:03:58Tagged date : UTC 2017-05-01 15:04:30Writing application : MkvToMp4 version: 0.224 (x64)Cover : YesComment : rip by Frost O.SLongDescription : В доперестроечные времена торговля наркотиками была из ряда вон выходящим преступлением. На борьбу с грузинским мафиози, который используя все связи США, пытается пристрастить к кокаину советских граждан, выходит гроза преступного мира милиционер Иван Данко. Этот парень не любит шутить, и доказательством серьезности его намерений служат большие мускулы и пистолет. Чтобы арестовать бандита, Иван направляется в Чикаго — рассадник капиталистической заразы. Там его помощником становится болтливый полицейский. Вместе они обезвреживают мафиози, разрушив при этом полгорода и расстреляв пару десятков негодяев.

VideoID : 1Format : MPEG-4 VisualFormat profile : Advanced [email protected] settings, BVOP : YesFormat settings, QPel : YesFormat settings, GMC : No warppointsFormat settings, Matrix : CustomCodec ID : 20Duration : 1 h 44 minBit rate mode : VariableBit rate : 499 kb/sMaximum bit rate : 194 Mb/sWidth : 480 pixelsHeight : 272 pixelsDisplay aspect ratio : 16:9Frame rate mode : VariableFrame rate : 23.976 (23976/1000) FPSMinimum frame rate : 11.988 FPSMaximum frame rate : 23.976 FPSColor space : YUVChroma subsampling : 4:2:0Bit depth : 8 bitsScan type : ProgressiveCompression mode : LossyBits/(Pixel*Frame) : 0.160Stream size : 373 MiB (79%)Title : avi_GPAC0.5.2_DEV_rev248_g39d5978_masterWriting library : XviD 1.2.1 (UTC 2008-12-04)Language : EnglishTagged date : UTC 2017-05-01 15:04:10

AudioID : 2Format : AACFormat/Info : Advanced Audio CodecFormat profile : LCCodec ID : 40Duration : 1 h 44 minBit rate mode : VariableBit rate : 128 kb/sMaximum bit rate : 135 kb/sChannel(s) : 2 channelsChannel positions : Front: L RSampling rate : 48.0 kHzFrame rate : 46.875 FPS (1024 spf)Compression mode : LossyStream size : 95.5 MiB (20%)Title : DVO_ R5 / DVO_ R5Language : RussianDefault : YesAlternate group : 1Encoded date : UTC 2017-05-01 15:04:02Tagged date : UTC 2017-05-01 15:04:10


Трекер:  [ 01-Май-2017 17:00 ]

  

Скачать .torrent

Размер .torrent файла 19 KB


Размер: 474 MB
Хэш (hash) релиза: d410ff53d6745747f7b3a274096b4a0395275f3b

Еще никто не оставлял запись к записи скачать торрент [VIDEO] Красная жара Red . Будь первым!

!Обратная связь