Spirit Blade Mountain 243
First Match

Скачать через торрент [VIDEO] Мимино бесплатно русская версия torrent активатор

Статистика раздачи
Размер:  346 MB   |    Зарегистрирован:  11 месяцев   |    .torrent скачан:  19 раз   |   
Раздают:  1  
   
загрузка...
 
Автор Сообщение

Galfimbul

avatar Galfimbul


Мимино

Год выпуска: 1977
Страна: СССР
Жанр: комедия
Продолжительность: 01:31:11
Перевод: не требуется
Cубтитры: нет
Режиссер: Георгий Данелия
В ролях: Вахтанг Кикабидзе, Фрунзик Мкртчян, Елена Проклова, Евгений Леонов, Руслан Микаберидзе, Закро Сахвадзе, Марина Дюжева, Арчил Гомиашвили, Валентина Титова, Владимир Басов, Вадим Спиридонов и другие .
Описание: «Мимино» - по-грузински «сокол». Так называют друзья героя фильма, летчика Валико Мизандари, по воле режиссера то и дело попадающего в смешные, грустные, а порой драматические ситуации.
Работая в родном горном селении, Мимино перевозит на вертолете почту, фрукты, овец. Но он давно мечтает о настоящей, большой авиации. Наконец ему удается воплотить свою мечту в жизнь.
Релиз группы
Качество: HDTVRip / рип с HDTV 1080i
Формат: MP4
Видео кодек: XviD
Аудио кодек: AAC
Видео: 440x320 AR:1.375 394 kbps 25 fps
Аудио: 2ch 48 kHz 128 kbps
GeneralComplete name : D:\Torrents\Мимино.1977.HDRip.XviD.480x.rip by Frost O.S.mp4Format : MPEG-4Format profile : Base MediaCodec ID : isom (isom)File size : 346 MiBDuration : 1 h 31 minOverall bit rate mode : VariableOverall bit rate : 531 kb/sMovie name : Мимино 1977 HDRip XviD 480x rip by Frost O SDirector : Георгий ДанелияActor : Вахтанг Кикабидзе / Фрунзик Мкртчян / Елена Проклова / Евгений Леонов / Руслан Микаберидзе / Закро Сахвадзе / Марина Дюжева / Арчил Гомиашвили / Валентина Титова / Владимир Басов / Вадим СпиридоновGenre : ComedyContentType : Short FilmEncoded date : UTC 2017-04-30 11:46:05Tagged date : UTC 2017-04-30 11:46:55Writing application : MkvToMp4 version: 0.224 (x64)Cover : YesComment : rip by Frost O.SLongDescription : «Мимино» - по-грузински «сокол». Так называют друзья героя фильма, летчика Валико Мизандари, по воле режиссера то и дело попадающего в смешные, грустные, а порой драматические ситуации. Работая в родном горном селении, Мимино перевозит на вертолете почту, фрукты, овец. Но он давно мечтает о настоящей, большой авиации. Наконец ему удается воплотить свою мечту в жизнь.

VideoID : 1Format : MPEG-4 VisualFormat profile : Advanced [email protected] settings, BVOP : YesFormat settings, QPel : YesFormat settings, GMC : No warppointsFormat settings, Matrix : CustomCodec ID : 20Duration : 1 h 31 minBit rate mode : VariableBit rate : 394 kb/sMaximum bit rate : 2 398 kb/sWidth : 440 pixelsHeight : 320 pixelsDisplay aspect ratio : 1.375Frame rate mode : ConstantFrame rate : 25.000 FPSColor space : YUVChroma subsampling : 4:2:0Bit depth : 8 bitsScan type : ProgressiveCompression mode : LossyBits/(Pixel*Frame) : 0.112Stream size : 257 MiB (74%)Title : avi_GPAC0.5.2_DEV_rev248_g39d5978_masterWriting library : XviD 1.2.1 (UTC 2008-12-04)Language : EnglishTagged date : UTC 2017-04-30 11:46:09

AudioID : 2Format : AACFormat/Info : Advanced Audio CodecFormat profile : LCCodec ID : 40Duration : 1 h 31 minBit rate mode : VariableBit rate : 128 kb/sMaximum bit rate : 131 kb/sChannel(s) : 2 channelsChannel positions : Front: L RSampling rate : 48.0 kHzFrame rate : 46.875 FPS (1024 spf)Compression mode : LossyStream size : 83.5 MiB (24%)Language : RussianDefault : YesAlternate group : 1Encoded date : UTC 2017-04-30 11:46:07Tagged date : UTC 2017-04-30 11:46:09


Трекер:  [ 30-Апр-2017 14:30 ]

  

Скачать .torrent

Размер .torrent файла 14 KB


Размер: 346 MB
Хэш (hash) релиза: 5b87f26964e155ade9cb6317dd0746db4ae92e8f

Торренты, похожие на [VIDEO] Мимино скачать торрент

Форум Название Автор Размер S L Добавлен
Видео (Фильмы/Клипы) ·· [VIDEO] Мимино (Георгий Данелия) [1977, комедия, HDTVRip] [MP4, 960x] Galfimbul 12834641491.2 GB 0 0 1493402707

21:05

28-Апр-17

Еще никто не оставлял запись к записи скачать торрент [VIDEO] Мимино . Будь первым!

!Обратная связь